你所知道的4K资源这里全部都有 4K电影 | 4K视频 | 4K壁纸 | 4K MV 怎么播放4K视频 | 4K电视演示片

教你玩转4K私人与家庭影院存储 NAS组装 | 黑群辉 家庭/影院Nas论坛

4K家庭影院信号源与视频设备知识 4K蓝光高清播放机 - 那个品牌好? 4K投影机论坛 | 4K电视机论坛

手把手教你搭建属于自己的家庭影院 4K家庭影院案例 | 家庭影院音频 4K家庭影院论坛

查看: 229|回复: 4

[剧情片] 极速杀机/极速杀手 Speed.Kills.2018.1080p.BluRay.REMUX.AVC.DTS-HD.MA5.1-FGT 20.19GB

[复制链接]

 成长值: 1670

级别:资源管理组

注册时间
2017-10-20
最后登录
2019-6-25
听众
0
收听
0
主题
78745
蓝光币
28948 枚
贡献
3070 点
发表于 2019-1-6 20:10:25 | 显示全部楼层 |阅读模式

极速杀机/极速杀手 Speed.Kills.2018.1080p.BluRay.REMUX.AVC.DTS-HD.MA5.1-FGT 20.19GB-1.jpg
◎译  名 极速杀机 / 极速杀手
◎片  名 极速杀机 Speed Kills
◎年  代 2019
◎国  家 美国
◎类  别 剧情 / 列传
◎语  言 英语
◎上映日期 2018-11-16(美国)
◎IMDb评分  4.0/10 from 815 users
◎IMDb链接  http://www.imdb.com/title/tt6749318/
◎豆瓣评分 5.4/10 from 261 users
◎豆瓣链接 https://movie.douban.com/subject/27010944/
◎片  长 102分钟
◎导  演 约翰·卢森霍普
◎主  演 约翰·特拉沃尔塔
      詹迪·莫拉
      凯瑟琳·温妮克
      米拉·索维诺
      凯南·鲁兹
      马修·莫迪恩
      詹姆斯·瑞马尔
      阿莫里·诺拉斯科

◎简  介 

  约翰·特拉沃尔塔肯定加盟约翰·卢森霍普([银行匪帮])执导的新片[极速杀机](Speed Kills,暂译),在片中饰演传奇“船王”唐·阿罗诺。唐·阿罗诺曾在与美国政府的一般商贸活动中暗行贩毒之举,1987年在迈阿密遭受暗杀。本片将于今年5月底在圣胡安及迈阿密等地取景拍摄。


  1. Video
  2. ID                                       : 1
  3. Format                                   : AVC
  4. Format/Info                              : Advanced Video Codec
  5. Format profile                           : [url=/cdn-cgi/l/email-protection][email protected][/url]
  6. Format settings                          : CABAC / 4 Ref Frames
  7. Format settings, CABAC                   : Yes
  8. Format settings, ReFrames                : 4 frames
  9. Codec ID                                 : V_MPEG4/ISO/AVC
  10. Duration                                 : 1 h 42 min
  11. Bit rate mode                            : Variable
  12. Bit rate                                 : 22.9 Mb/s
  13. Maximum bit rate                         : 37.0 Mb/s
  14. Width                                    : 1 920 pixels
  15. Height                                   : 1 080 pixels
  16. Display aspect ratio                     : 16:9
  17. Frame rate mode                          : Constant
  18. Frame rate                               : 23.976 (24000/1001) FPS
  19. Color space                              : YUV
  20. Chroma subsampling                       : 4:2:0
  21. Bit depth                                : 8 bits
  22. Scan type                                : Progressive
  23. Bits/(Pixel*Frame)                       : 0.460
  24. Stream size                              : 16.4 GiB (81%)
  25. Title                                    : Speed.Kills.2018.1080p.BluRay.REMUX.AVC.DTS-HD.MA5.1-FGT
  26. Language                                 : English
  27. Default                                  : No
  28. Forced                                   : No

  29. Audio #1
  30. ID                                       : 2
  31. Format                                   : DTS XLL
  32. Format/Info                              : Digital Theater Systems
  33. Commercial name                          : DTS-HD Master Audio
  34. Codec ID                                 : A_DTS
  35. Duration                                 : 1 h 42 min
  36. Bit rate mode                            : Variable
  37. Bit rate                                 : 3 787 kb/s
  38. Channel(s)                               : 6 channels
  39. Channel layout                           : C L R Ls Rs LFE
  40. Sampling rate                            : 48.0 kHz
  41. Frame rate                               : 93.750 FPS (512 SPF)
  42. Bit depth                                : 24 bits
  43. Compression mode                         : Lossless
  44. Stream size                              : 2.71 GiB (13%)
  45. Title                                    : Speed.Kills.2018.1080p.BluRay.REMUX.AVC.DTS-HD.MA5.1-FGT
  46. Language                                 : English
  47. Default                                  : Yes
  48. Forced                                   : No

  49. Audio #2
  50. ID                                       : 3
  51. Format                                   : DTS
  52. Format/Info                              : Digital Theater Systems
  53. Codec ID                                 : A_DTS
  54. Duration                                 : 1 h 42 min
  55. Bit rate mode                            : Constant
  56. Bit rate                                 : 1 509 kb/s
  57. Channel(s)                               : 6 channels
  58. Channel layout                           : C L R Ls Rs LFE
  59. Sampling rate                            : 48.0 kHz
  60. Frame rate                               : 93.750 FPS (512 SPF)
  61. Bit depth                                : 24 bits
  62. Compression mode                         : Lossy
  63. Stream size                              : 1.08 GiB (5%)
  64. Title                                    : Speed.Kills.2018.1080p.BluRay.REMUX.AVC.DTS-HD.MA5.1-FGT
  65. Language                                 : English
  66. Default                                  : No
  67. Forced                                   : No

  68. Text #1
  69. ID                                       : 4
  70. Format                                   : PGS
  71. Muxing mode                              : zlib
  72. Codec ID                                 : S_HDMV/PGS
  73. Codec ID/Info                            : Picture based subtitle format used on BDs/HD-DVDs
  74. Duration                                 : 1 h 35 min
  75. Bit rate                                 : 40.6 kb/s
  76. Count of elements                        : 2481
  77. Stream size                              : 27.8 MiB (0%)
  78. Title                                    : English-PGS
  79. Language                                 : English
  80. Default                                  : Yes
  81. Forced                                   : No

  82. Text #2
  83. ID                                       : 5
  84. Format                                   : PGS
  85. Muxing mode                              : zlib
  86. Codec ID                                 : S_HDMV/PGS
  87. Codec ID/Info                            : Picture based subtitle format used on BDs/HD-DVDs
  88. Duration                                 : 1 h 35 min
  89. Bit rate                                 : 34.9 kb/s
  90. Count of elements                        : 2234
  91. Stream size                              : 23.9 MiB (0%)
  92. Title                                    : Spanish-PGS
  93. Language                                 : Spanish
  94. Default                                  : No
  95. Forced                                   : No

  96. Menu
  97. 00:00:00.000                             : en:Chapter 01
  98. 00:05:52.393                             : en:Chapter 02
  99. 00:12:19.905                             : en:Chapter 03
  100. 00:18:25.562                             : en:Chapter 04
  101. 00:24:49.821                             : en:Chapter 05
  102. 00:33:39.142                             : en:Chapter 06
  103. 00:38:17.962                             : en:Chapter 07
  104. 00:44:28.457                             : en:Chapter 08
  105. 00:51:38.637                             : en:Chapter 09
  106. 00:55:46.343                             : en:Chapter 10
  107. 01:02:40.465                             : en:Chapter 11
  108. 01:08:23.390                             : en:Chapter 12
  109. 01:15:23.936                             : en:Chapter 13
  110. 01:23:54.612                             : en:Chapter 14
  111. 01:27:26.199                             : en:Chapter 15
  112. 01:32:46.060                             : en:Chapter 16
复制代码

复制代码

极速杀机/极速杀手 Speed.Kills.2018.1080p.BluRay.REMUX.AVC.DTS-HD.MA5.1-FGT 20.19GB-2.png 极速杀机/极速杀手 Speed.Kills.2018.1080p.BluRay.REMUX.AVC.DTS-HD.MA5.1-FGT 20.19GB-3.png 极速杀机/极速杀手 Speed.Kills.2018.1080p.BluRay.REMUX.AVC.DTS-HD.MA5.1-FGT 20.19GB-4.png




回复

使用道具 举报

级别:荣升主角 Lv.5

注册时间
2018-5-27
最后登录
2019-6-24
听众
10
收听
0
主题
0
蓝光币
135 枚
贡献
0 点
发表于 2019-1-11 21:21:02 | 显示全部楼层
感谢分享!
回复

使用道具 举报

级别:荣升主角 Lv.5

注册时间
2018-10-31
最后登录
2019-6-24
听众
7
收听
0
主题
0
蓝光币
1237 枚
贡献
0 点
QQ
发表于 2019-1-11 23:32:43 | 显示全部楼层

这东西我收了!谢谢楼主!中国高清电影网真好!
回复

使用道具 举报

级别:群众演员 Lv.3

注册时间
2018-2-11
最后登录
2019-4-12
听众
7
收听
0
主题
0
蓝光币
33 枚
贡献
0 点
QQ
发表于 2019-1-13 18:56:40 | 显示全部楼层

论坛不能没有像楼主这样的人才啊!我会一直支持中国高清电影网
回复

使用道具 举报

级别:普通观众 Lv.2

注册时间
2018-12-1
最后登录
2019-1-23
听众
5
收听
0
主题
0
蓝光币
18 枚
贡献
0 点
QQ
发表于 2019-1-14 22:55:18 | 显示全部楼层

楼主太厉害了!楼主,电影应该很好看我觉得中国高清电影网真是个好地方!
回复

使用道具 举报

*滑动验证:
懒得打字嘛,点击右侧快捷回复 【右侧内容,后台自定义】
您需要登录后才可以回帖 登录 | 立即注册

本版积分规则

QQ|Archiver|手机版|小黑屋| 中国高清网 |网站地图

GMT+8, 2019-6-25 01:23 , Processed in 0.175003 second(s), 45 queries .

Powered by HDchina X3.4

Copyright 2017-2019©HDchina.All right reserved

返回顶部 联系我们