你所知道的4K资源这里全部都有 4K电影 | 4K视频 | 4K壁纸 | 4K MV 怎么播放4K视频 | 4K电视演示片

教你玩转4K私人与家庭影院存储 NAS组装 | 黑群辉 家庭/影院Nas论坛

4K家庭影院信号源与视频设备知识 4K蓝光高清播放机 - 那个品牌好? 4K投影机论坛 | 4K电视机论坛

手把手教你搭建属于自己的家庭影院 4K家庭影院案例 | 家庭影院音频 4K家庭影院论坛

查看: 84|回复: 1

[剧情片] 猛龙过江 The.Way.Of.The.Dragon.1972.REMASTERED.CHINESE.1080p.BluRay.REMUX.AVC.DTS-HD.MA.5.1-FGT 32.29GB

[复制链接]

 成长值: 730

级别:资源管理组

注册时间
2017-10-20
最后登录
2019-3-24
听众
0
收听
0
主题
76515
蓝光币
135276 枚
贡献
146324 点
发表于 2019-1-6 20:09:23 | 显示全部楼层 |阅读模式

猛龙过江 The.Way.Of.The.Dragon.1972.REMASTERED.CHINESE.1080p.BluRay.REMUX.AVC.DTS-HD.MA.5.1-FGT 32.29GB-1.jpg
◎译  名 猛龙过江 / The Way of the Dragon / Fury of the Dragon / Mang lung goh kong / Return of the Dragon / Revenge of the Dragon
◎片  名 猛龙过江 猛龍過江
◎年  代 1972
◎国  家 香港
◎类  别 剧情 / 笑剧 / 行动 / 惊悚 / 犯罪
◎语  言 汉语普通话 / 粤语 / 英语 / 意大利语
◎上映日期 1972-12-30
◎IMDb评分  7.3/10 from 27,715 users
◎IMDb链接  http://www.imdb.com/title/tt0068935/
◎豆瓣评分 8.3/10 from 21848 users
◎豆瓣链接 https://movie.douban.com/subject/1306870/
◎片  长 100 分钟 / USA: 90 分钟
◎导  演 李小龙
◎主  演 李小龙
      苗可秀
      罗礼士

◎简  介 

  新年前夜,香港青年唐龙(李小龙 饰)受远在罗马经营餐厅的陈清华(苗可秀 饰)之叔父所托,远赴罗马助陈清华落井下石。本来,陈清华从父亲手中接收餐厅未几,当地的贸易团体看中了餐厅地点的地皮,而陈清华想守住家业不愿出售,贸易团体遂使出下三滥手段,日日派地痞骚扰,令餐厅买卖难以为继。唐龙甫一到罗马,因说话欠亨闹出很多笑话,陈清华则以为强援是律师,岂料是一鲁莽的乡下青年,难免失望。餐厅众办事员为了抵抗地痞,自觉进修白手道,但仍然被对方欺侮,危机时辰唐龙脱手,将一众地痞痛打。不甘失利的贸易团体欲致唐龙于死地,陈清华担忧其安危劝唐龙分开,面临将陈清华绑架的下贱对手,唐龙忍无可忍,与贸易团体聘请的众多高手展开连番搏杀……

◎获奖情况 

  第11届台北金马影展 (1973)
  金马奖 最好剧情片(提名)
  金马奖 最好剪辑 张耀宗


  1. Video
  2. ID                                       : 1
  3. Format                                   : AVC
  4. Format/Info                              : Advanced Video Codec
  5. Format profile                           : [url=/cdn-cgi/l/email-protection][email protected][/url]
  6. Format settings                          : CABAC / 4 Ref Frames
  7. Format settings, CABAC                   : Yes
  8. Format settings, ReFrames                : 4 frames
  9. Codec ID                                 : V_MPEG4/ISO/AVC
  10. Duration                                 : 1 h 39 min
  11. Bit rate mode                            : Constant
  12. Bit rate                                 : 35.0 Mb/s
  13. Width                                    : 1 920 pixels
  14. Height                                   : 1 080 pixels
  15. Display aspect ratio                     : 16:9
  16. Frame rate mode                          : Constant
  17. Frame rate                               : 23.976 (24000/1001) FPS
  18. Color space                              : YUV
  19. Chroma subsampling                       : 4:2:0
  20. Bit depth                                : 8 bits
  21. Scan type                                : Progressive
  22. Bits/(Pixel*Frame)                       : 0.704
  23. Stream size                              : 23.7 GiB (74%)
  24. Title                                    : The.Way.Of.The.Dragon.1972.REMASTERED.CHINESE.1080p.BluRay.REMUX.AVC.DTS-HD.MA..5.1-FGT
  25. Language                                 : English
  26. Default                                  : No
  27. Forced                                   : No

  28. Audio #1
  29. ID                                       : 2
  30. Format                                   : DTS XLL
  31. Format/Info                              : Digital Theater Systems
  32. Commercial name                          : DTS-HD Master Audio
  33. Codec ID                                 : A_DTS
  34. Duration                                 : 1 h 39 min
  35. Bit rate mode                            : Variable
  36. Bit rate                                 : 2 417 kb/s
  37. Channel(s)                               : 6 channels
  38. Channel layout                           : C L R Ls Rs LFE
  39. Sampling rate                            : 48.0 kHz
  40. Frame rate                               : 93.750 FPS (512 SPF)
  41. Bit depth                                : 24 bits
  42. Compression mode                         : Lossless
  43. Stream size                              : 1.68 GiB (5%)
  44. Title                                    : The.Way.Of.The.Dragon.1972.REMASTERED.CHINESE.1080p.BluRay.REMUX.AVC.DTS-HD.MA..5.1-FGT
  45. Language                                 : Chinese
  46. Default                                  : Yes
  47. Forced                                   : No

  48. Audio #2
  49. ID                                       : 3
  50. Format                                   : DTS
  51. Format/Info                              : Digital Theater Systems
  52. Codec ID                                 : A_DTS
  53. Duration                                 : 1 h 39 min
  54. Bit rate mode                            : Constant
  55. Bit rate                                 : 1 509 kb/s
  56. Channel(s)                               : 6 channels
  57. Channel layout                           : C L R Ls Rs LFE
  58. Sampling rate                            : 48.0 kHz
  59. Frame rate                               : 93.750 FPS (512 SPF)
  60. Bit depth                                : 24 bits
  61. Compression mode                         : Lossy
  62. Stream size                              : 1.05 GiB (3%)
  63. Title                                    : The.Way.Of.The.Dragon.1972.REMASTERED.CHINESE.1080p.BluRay.REMUX.AVC.DTS-HD.MA..5.1-FGT
  64. Language                                 : Chinese
  65. Default                                  : No
  66. Forced                                   : No

  67. Audio #3
  68. ID                                       : 4
  69. Format                                   : AC-3
  70. Format/Info                              : Audio Coding 3
  71. Commercial name                          : Dolby Digital
  72. Codec ID                                 : A_AC3
  73. Duration                                 : 1 h 39 min
  74. Bit rate mode                            : Constant
  75. Bit rate                                 : 96.0 kb/s
  76. Channel(s)                               : 1 channel
  77. Channel layout                           : C
  78. Sampling rate                            : 48.0 kHz
  79. Frame rate                               : 31.250 FPS (1536 SPF)
  80. Bit depth                                : 16 bits
  81. Compression mode                         : Lossy
  82. Stream size                              : 68.1 MiB (0%)
  83. Title                                    : The.Way.Of.The.Dragon.1972.REMASTERED.CHINESE.1080p.BluRay.REMUX.AVC.DTS-HD.MA..5.1-FGT
  84. Language                                 : Chinese
  85. Service kind                             : Complete Main
  86. Default                                  : No
  87. Forced                                   : No

  88. Audio #4
  89. ID                                       : 5
  90. Format                                   : AC-3
  91. Format/Info                              : Audio Coding 3
  92. Commercial name                          : Dolby Digital
  93. Codec ID                                 : A_AC3
  94. Duration                                 : 1 h 39 min
  95. Bit rate mode                            : Constant
  96. Bit rate                                 : 448 kb/s
  97. Channel(s)                               : 6 channels
  98. Channel layout                           : L R C LFE Ls Rs
  99. Sampling rate                            : 48.0 kHz
  100. Frame rate                               : 31.250 FPS (1536 SPF)
  101. Bit depth                                : 16 bits
  102. Compression mode                         : Lossy
  103. Stream size                              : 318 MiB (1%)
  104. Title                                    : The.Way.Of.The.Dragon.1972.REMASTERED.CHINESE.1080p.BluRay.REMUX.AVC.DTS-HD.MA..5.1-FGT
  105. Language                                 : Chinese
  106. Service kind                             : Complete Main
  107. Default                                  : No
  108. Forced                                   : No

  109. Audio #5
  110. ID                                       : 6
  111. Format                                   : AC-3
  112. Format/Info                              : Audio Coding 3
  113. Commercial name                          : Dolby Digital
  114. Codec ID                                 : A_AC3
  115. Duration                                 : 1 h 39 min
  116. Bit rate mode                            : Constant
  117. Bit rate                                 : 96.0 kb/s
  118. Channel(s)                               : 1 channel
  119. Channel layout                           : C
  120. Sampling rate                            : 48.0 kHz
  121. Frame rate                               : 31.250 FPS (1536 SPF)
  122. Bit depth                                : 16 bits
  123. Compression mode                         : Lossy
  124. Stream size                              : 68.1 MiB (0%)
  125. Title                                    : The.Way.Of.The.Dragon.1972.REMASTERED.CHINESE.1080p.BluRay.REMUX.AVC.DTS-HD.MA..5.1-FGT
  126. Language                                 : English
  127. Service kind                             : Complete Main
  128. Default                                  : No
  129. Forced                                   : No

  130. Audio #6
  131. ID                                       : 7
  132. Format                                   : AC-3
  133. Format/Info                              : Audio Coding 3
  134. Commercial name                          : Dolby Digital
  135. Codec ID                                 : A_AC3
  136. Duration                                 : 1 h 39 min
  137. Bit rate mode                            : Constant
  138. Bit rate                                 : 96.0 kb/s
  139. Channel(s)                               : 1 channel
  140. Channel layout                           : C
  141. Sampling rate                            : 48.0 kHz
  142. Frame rate                               : 31.250 FPS (1536 SPF)
  143. Bit depth                                : 16 bits
  144. Compression mode                         : Lossy
  145. Stream size                              : 68.1 MiB (0%)
  146. Title                                    : The.Way.Of.The.Dragon.1972.REMASTERED.CHINESE.1080p.BluRay.REMUX.AVC.DTS-HD.MA..5.1-FGT
  147. Language                                 : English
  148. Service kind                             : Complete Main
  149. Default                                  : No
  150. Forced                                   : No

  151. Audio #7
  152. ID                                       : 8
  153. Format                                   : DTS XLL
  154. Format/Info                              : Digital Theater Systems
  155. Commercial name                          : DTS-HD Master Audio
  156. Codec ID                                 : A_DTS
  157. Duration                                 : 1 h 39 min
  158. Bit rate mode                            : Variable
  159. Bit rate                                 : 3 056 kb/s
  160. Channel(s)                               : 6 channels
  161. Channel layout                           : C L R Ls Rs LFE
  162. Sampling rate                            : 48.0 kHz
  163. Frame rate                               : 93.750 FPS (512 SPF)
  164. Bit depth                                : 24 bits
  165. Compression mode                         : Lossless
  166. Stream size                              : 2.12 GiB (7%)
  167. Title                                    : The.Way.Of.The.Dragon.1972.REMASTERED.CHINESE.1080p.BluRay.REMUX.AVC.DTS-HD.MA..5.1-FGT
  168. Language                                 : English
  169. Default                                  : No
  170. Forced                                   : No

  171. Audio #8
  172. ID                                       : 9
  173. Format                                   : DTS
  174. Format/Info                              : Digital Theater Systems
  175. Codec ID                                 : A_DTS
  176. Duration                                 : 1 h 39 min
  177. Bit rate mode                            : Constant
  178. Bit rate                                 : 1 509 kb/s
  179. Channel(s)                               : 6 channels
  180. Channel layout                           : C L R Ls Rs LFE
  181. Sampling rate                            : 48.0 kHz
  182. Frame rate                               : 93.750 FPS (512 SPF)
  183. Bit depth                                : 24 bits
  184. Compression mode                         : Lossy
  185. Stream size                              : 1.05 GiB (3%)
  186. Title                                    : The.Way.Of.The.Dragon.1972.REMASTERED.CHINESE.1080p.BluRay.REMUX.AVC.DTS-HD.MA..5.1-FGT
  187. Language                                 : English
  188. Default                                  : No
  189. Forced                                   : No

  190. Audio #9
  191. ID                                       : 10
  192. Format                                   : DTS XLL
  193. Format/Info                              : Digital Theater Systems
  194. Commercial name                          : DTS-HD Master Audio
  195. Codec ID                                 : A_DTS
  196. Duration                                 : 1 h 39 min
  197. Bit rate mode                            : Variable
  198. Bit rate                                 : 1 569 kb/s
  199. Channel(s)                               : 2 channels
  200. Channel layout                           : L R
  201. Sampling rate                            : 48.0 kHz
  202. Frame rate                               : 93.750 FPS (512 SPF)
  203. Bit depth                                : 24 bits
  204. Compression mode                         : Lossless
  205. Stream size                              : 1.09 GiB (3%)
  206. Title                                    : The.Way.Of.The.Dragon.1972.REMASTERED.CHINESE.1080p.BluRay.REMUX.AVC.DTS-HD.MA..5.1-FGT
  207. Language                                 : English
  208. Default                                  : No
  209. Forced                                   : No

  210. Audio #10
  211. ID                                       : 11
  212. Format                                   : DTS
  213. Format/Info                              : Digital Theater Systems
  214. Codec ID                                 : A_DTS
  215. Duration                                 : 1 h 39 min
  216. Bit rate mode                            : Constant
  217. Bit rate                                 : 1 509 kb/s
  218. Channel(s)                               : 2 channels
  219. Channel layout                           : L R
  220. Sampling rate                            : 48.0 kHz
  221. Frame rate                               : 93.750 FPS (512 SPF)
  222. Bit depth                                : 24 bits
  223. Compression mode                         : Lossy
  224. Stream size                              : 1.05 GiB (3%)
  225. Title                                    : The.Way.Of.The.Dragon.1972.REMASTERED.CHINESE.1080p.BluRay.REMUX.AVC.DTS-HD.MA..5.1-FGT
  226. Language                                 : English
  227. Default                                  : No
  228. Forced                                   : No

  229. Text #1
  230. ID                                       : 12
  231. Format                                   : PGS
  232. Muxing mode                              : zlib
  233. Codec ID                                 : S_HDMV/PGS
  234. Codec ID/Info                            : Picture based subtitle format used on BDs/HD-DVDs
  235. Duration                                 : 1 h 35 min
  236. Bit rate                                 : 22.8 kb/s
  237. Count of elements                        : 1096
  238. Stream size                              : 15.5 MiB (0%)
  239. Title                                    : English-PGS
  240. Language                                 : English
  241. Default                                  : Yes
  242. Forced                                   : Yes

  243. Text #2
  244. ID                                       : 13
  245. Format                                   : PGS
  246. Muxing mode                              : zlib
  247. Codec ID                                 : S_HDMV/PGS
  248. Codec ID/Info                            : Picture based subtitle format used on BDs/HD-DVDs
  249. Duration                                 : 1 h 37 min
  250. Bit rate                                 : 25.6 kb/s
  251. Count of elements                        : 2222
  252. Stream size                              : 17.9 MiB (0%)
  253. Title                                    : English-SDH-PGS
  254. Language                                 : English
  255. Default                                  : No
  256. Forced                                   : No

  257. Menu
  258. 00:00:00.000                             : en:Chapter 01
  259. 00:10:37.011                             : en:Chapter 02
  260. 00:21:18.568                             : en:Chapter 03
  261. 00:26:29.087                             : en:Chapter 04
  262. 00:34:27.732                             : en:Chapter 05
  263. 00:40:48.487                             : en:Chapter 06
  264. 00:47:32.766                             : en:Chapter 07
  265. 00:56:09.491                             : en:Chapter 08
  266. 01:06:00.957                             : en:Chapter 09
  267. 01:15:11.215                             : en:Chapter 10
  268. 01:24:42.118                             : en:Chapter 11
  269. 01:34:53.145                             : en:Chapter 12
复制代码

复制代码

猛龙过江 The.Way.Of.The.Dragon.1972.REMASTERED.CHINESE.1080p.BluRay.REMUX.AVC.DTS-HD.MA.5.1-FGT 32.29GB-2.png 猛龙过江 The.Way.Of.The.Dragon.1972.REMASTERED.CHINESE.1080p.BluRay.REMUX.AVC.DTS-HD.MA.5.1-FGT 32.29GB-3.png 猛龙过江 The.Way.Of.The.Dragon.1972.REMASTERED.CHINESE.1080p.BluRay.REMUX.AVC.DTS-HD.MA.5.1-FGT 32.29GB-4.png





回复

使用道具 举报

级别:群众演员 Lv.3

注册时间
2018-6-6
最后登录
2019-3-9
听众
3
收听
0
主题
0
蓝光币
170 枚
贡献
0 点
发表于 2019-1-7 22:50:03 | 显示全部楼层
楼主发贴辛苦了,谢谢楼主分享!我觉得中国高清电影网是注册对了!
回复

使用道具 举报

懒得打字嘛,点击右侧快捷回复 【右侧内容,后台自定义】
您需要登录后才可以回帖 登录 | 立即注册

本版积分规则

QQ|Archiver|手机版|小黑屋|中国高清网 |网站地图

GMT+8, 2019-3-24 10:47 , Processed in 0.203534 second(s), 41 queries .

Powered by HDchina X3.4

Copyright 2017-2018©HDchina.All right reserved

返回顶部 联系我们