你所知道的4K资源这里全部都有 4K电影 | 4K视频 | 4K壁纸 | 4K MV 怎么播放4K视频 | 4K电视演示片

教你玩转4K私人与家庭影院存储 NAS组装 | 黑群辉 家庭/影院Nas论坛

4K家庭影院信号源与视频设备知识 4K蓝光高清播放机 - 那个品牌好? 4K投影机论坛 | 4K电视机论坛

手把手教你搭建属于自己的家庭影院 4K家庭影院案例 | 家庭影院音频 4K家庭影院论坛

查看: 38|回复: 0

[剧情片] 死亡游戏 Game.Of.Death.1978.REMASTERED.1080p.BluRay.REMUX.AVC.DTS-HD.MA.5.1-FGT 25.64GB

[复制链接]

 成长值: 70

级别:资源管理组

UID
1
注册时间
2017-10-20
最后登录
2019-1-17
听众
0
收听
0
主题
73857
蓝光币
114324 枚
贡献
143666 点
发表于 2019-1-5 17:11:56 | 显示全部楼层 |阅读模式

灭亡游戏 Game.Of.Death.1978.REMASTERED.1080p.BluRay.REMUX.AVC.DTS-HD.MA.5.1-FGT 25.64GB-1.jpg
◎译  名 灭亡游戏 / Game of Death
◎片  名 灭亡游戏 Game of Death
◎年  代 1978
◎国  家 香港 / 美国
◎类  别 剧情 / 行动 / 惊悚 / 犯罪
◎语  言 英语 / 汉语普通话 / 粤语
◎上映日期 1978-03-23
◎IMDb评分  6.1/10 from 14,688 users
◎IMDb链接  http://www.imdb.com/title/tt0077594/
◎豆瓣评分 7.7/10 from 7605 users
◎豆瓣链接 https://movie.douban.com/subject/1308456/
◎片  长 85分钟 / 125分钟(香港) / 100分钟(美国)
◎导  演 罗伯特·高洛斯
◎主  演 李小龙
      考林·加普
      洪金宝
      唐龙
      卡里姆·阿卜杜尔-贾巴尔

◎简  介 

  行动片明星比利(李小龙&唐龙 饰)比来频频遭受骚扰,本来邪恶团体头目兰德博士成心掌控在澳门举行的国际搏击大赛,希望比利可以入伙,但是比利的拒绝令他们拊膺切齿。比利与歌星女友安一同出行,被兰德一伙截路殴打,比利决议奋起抵挡,由于担忧女友的安危只得忍受。未几,比利在片场遭暗害,面部受创,随行将计就计放出灭亡消息麻痹兰德。在搏击角逐时代,比利潜入澳门,将兰德的选手击溃,使其计划破产。随后比利孤身一人前往兰德团伙焦点大楼,在层层应战中伐罪仇人……
  本片在李小龙归天后用他生前拍摄的片断补拍而成,大部分镜头中比利这一脚色由唐龙饰演。


  1. Video
  2. ID                                       : 1
  3. Format                                   : AVC
  4. Format/Info                              : Advanced Video Codec
  5. Format profile                           : [url=/cdn-cgi/l/email-protection][email protected][/url]
  6. Format settings                          : CABAC / 4 Ref Frames
  7. Format settings, CABAC                   : Yes
  8. Format settings, ReFrames                : 4 frames
  9. Codec ID                                 : V_MPEG4/ISO/AVC
  10. Duration                                 : 1 h 40 min
  11. Bit rate mode                            : Constant
  12. Bit rate                                 : 30.0 Mb/s
  13. Width                                    : 1 920 pixels
  14. Height                                   : 1 080 pixels
  15. Display aspect ratio                     : 16:9
  16. Frame rate mode                          : Constant
  17. Frame rate                               : 23.976 (24000/1001) FPS
  18. Color space                              : YUV
  19. Chroma subsampling                       : 4:2:0
  20. Bit depth                                : 8 bits
  21. Scan type                                : Progressive
  22. Bits/(Pixel*Frame)                       : 0.603
  23. Stream size                              : 20.6 GiB (80%)
  24. Title                                    : Game.Of.Death.1978.REMASTERED.1080p.BluRay.REMUX.AVC.DTS-HD.MA.5.1-FGT
  25. Language                                 : English
  26. Default                                  : No
  27. Forced                                   : No

  28. Audio #1
  29. ID                                       : 2
  30. Format                                   : DTS XLL
  31. Format/Info                              : Digital Theater Systems
  32. Commercial name                          : DTS-HD Master Audio
  33. Codec ID                                 : A_DTS
  34. Duration                                 : 1 h 40 min
  35. Bit rate mode                            : Variable
  36. Bit rate                                 : 2 005 kb/s
  37. Channel(s)                               : 6 channels
  38. Channel layout                           : C L R Ls Rs LFE
  39. Sampling rate                            : 48.0 kHz
  40. Frame rate                               : 93.750 FPS (512 SPF)
  41. Bit depth                                : 24 bits
  42. Compression mode                         : Lossless
  43. Stream size                              : 1.41 GiB (6%)
  44. Title                                    : Game.Of.Death.1978.REMASTERED.1080p.BluRay.REMUX.AVC.DTS-HD.MA.5.1-FGT
  45. Language                                 : English
  46. Default                                  : Yes
  47. Forced                                   : No

  48. Audio #2
  49. ID                                       : 3
  50. Format                                   : DTS
  51. Format/Info                              : Digital Theater Systems
  52. Codec ID                                 : A_DTS
  53. Duration                                 : 1 h 40 min
  54. Bit rate mode                            : Constant
  55. Bit rate                                 : 1 509 kb/s
  56. Channel(s)                               : 6 channels
  57. Channel layout                           : C L R Ls Rs LFE
  58. Sampling rate                            : 48.0 kHz
  59. Frame rate                               : 93.750 FPS (512 SPF)
  60. Bit depth                                : 24 bits
  61. Compression mode                         : Lossy
  62. Stream size                              : 1.06 GiB (4%)
  63. Title                                    : Game.Of.Death.1978.REMASTERED.1080p.BluRay.REMUX.AVC.DTS-HD.MA.5.1-FGT
  64. Language                                 : English
  65. Default                                  : No
  66. Forced                                   : No

  67. Audio #3
  68. ID                                       : 4
  69. Format                                   : DTS XLL
  70. Format/Info                              : Digital Theater Systems
  71. Commercial name                          : DTS-HD Master Audio
  72. Codec ID                                 : A_DTS
  73. Duration                                 : 1 h 40 min
  74. Bit rate mode                            : Variable
  75. Bit rate                                 : 1 720 kb/s
  76. Channel(s)                               : 2 channels
  77. Channel layout                           : L R
  78. Sampling rate                            : 48.0 kHz
  79. Frame rate                               : 93.750 FPS (512 SPF)
  80. Bit depth                                : 24 bits
  81. Compression mode                         : Lossless
  82. Stream size                              : 1.21 GiB (5%)
  83. Title                                    : Game.Of.Death.1978.REMASTERED.1080p.BluRay.REMUX.AVC.DTS-HD.MA.5.1-FGT
  84. Language                                 : English
  85. Default                                  : No
  86. Forced                                   : No

  87. Audio #4
  88. ID                                       : 5
  89. Format                                   : DTS
  90. Format/Info                              : Digital Theater Systems
  91. Codec ID                                 : A_DTS
  92. Duration                                 : 1 h 40 min
  93. Bit rate mode                            : Constant
  94. Bit rate                                 : 1 509 kb/s
  95. Channel(s)                               : 2 channels
  96. Channel layout                           : L R
  97. Sampling rate                            : 48.0 kHz
  98. Frame rate                               : 93.750 FPS (512 SPF)
  99. Bit depth                                : 24 bits
  100. Compression mode                         : Lossy
  101. Stream size                              : 1.06 GiB (4%)
  102. Title                                    : Game.Of.Death.1978.REMASTERED.1080p.BluRay.REMUX.AVC.DTS-HD.MA.5.1-FGT
  103. Language                                 : English
  104. Default                                  : No
  105. Forced                                   : No

  106. Audio #5
  107. ID                                       : 6
  108. Format                                   : AC-3
  109. Format/Info                              : Audio Coding 3
  110. Commercial name                          : Dolby Digital
  111. Codec ID                                 : A_AC3
  112. Duration                                 : 1 h 40 min
  113. Bit rate mode                            : Constant
  114. Bit rate                                 : 96.0 kb/s
  115. Channel(s)                               : 1 channel
  116. Channel layout                           : C
  117. Sampling rate                            : 48.0 kHz
  118. Frame rate                               : 31.250 FPS (1536 SPF)
  119. Bit depth                                : 16 bits
  120. Compression mode                         : Lossy
  121. Stream size                              : 69.2 MiB (0%)
  122. Title                                    : Game.Of.Death.1978.REMASTERED.1080p.BluRay.REMUX.AVC.DTS-HD.MA.5.1-FGT
  123. Language                                 : English
  124. Service kind                             : Complete Main
  125. Default                                  : No
  126. Forced                                   : No

  127. Audio #6
  128. ID                                       : 7
  129. Format                                   : AC-3
  130. Format/Info                              : Audio Coding 3
  131. Commercial name                          : Dolby Digital
  132. Codec ID                                 : A_AC3
  133. Duration                                 : 1 h 40 min
  134. Bit rate mode                            : Constant
  135. Bit rate                                 : 96.0 kb/s
  136. Channel(s)                               : 1 channel
  137. Channel layout                           : C
  138. Sampling rate                            : 48.0 kHz
  139. Frame rate                               : 31.250 FPS (1536 SPF)
  140. Bit depth                                : 16 bits
  141. Compression mode                         : Lossy
  142. Stream size                              : 69.2 MiB (0%)
  143. Title                                    : Game.Of.Death.1978.REMASTERED.1080p.BluRay.REMUX.AVC.DTS-HD.MA.5.1-FGT
  144. Language                                 : English
  145. Service kind                             : Complete Main
  146. Default                                  : No
  147. Forced                                   : No

  148. Audio #7
  149. ID                                       : 8
  150. Format                                   : AC-3
  151. Format/Info                              : Audio Coding 3
  152. Commercial name                          : Dolby Digital
  153. Codec ID                                 : A_AC3
  154. Duration                                 : 1 h 40 min
  155. Bit rate mode                            : Constant
  156. Bit rate                                 : 192 kb/s
  157. Channel(s)                               : 2 channels
  158. Channel layout                           : L R
  159. Sampling rate                            : 48.0 kHz
  160. Frame rate                               : 31.250 FPS (1536 SPF)
  161. Bit depth                                : 16 bits
  162. Compression mode                         : Lossy
  163. Stream size                              : 138 MiB (1%)
  164. Title                                    : Game.Of.Death.1978.REMASTERED.1080p.BluRay.REMUX.AVC.DTS-HD.MA.5.1-FGT
  165. Language                                 : English
  166. Service kind                             : Complete Main
  167. Default                                  : No
  168. Forced                                   : No

  169. Text
  170. ID                                       : 9
  171. Format                                   : PGS
  172. Muxing mode                              : zlib
  173. Codec ID                                 : S_HDMV/PGS
  174. Codec ID/Info                            : Picture based subtitle format used on BDs/HD-DVDs
  175. Duration                                 : 1 h 39 min
  176. Bit rate                                 : 24.4 kb/s
  177. Count of elements                        : 2073
  178. Stream size                              : 17.3 MiB (0%)
  179. Title                                    : English-PGS
  180. Language                                 : English
  181. Default                                  : Yes
  182. Forced                                   : No

  183. Menu
  184. 00:00:00.000                             : en:Chapter 01
  185. 00:08:18.039                             : en:Chapter 02
  186. 00:15:45.778                             : en:Chapter 03
  187. 00:23:39.209                             : en:Chapter 04
  188. 00:30:33.706                             : en:Chapter 05
  189. 00:39:17.521                             : en:Chapter 06
  190. 00:47:11.745                             : en:Chapter 07
  191. 00:58:27.128                             : en:Chapter 08
  192. 01:05:37.058                             : en:Chapter 09
  193. 01:12:06.488                             : en:Chapter 10
  194. 01:20:37.499                             : en:Chapter 11
  195. 01:33:23.055                             : en:Chapter 12
复制代码

复制代码

灭亡游戏 Game.Of.Death.1978.REMASTERED.1080p.BluRay.REMUX.AVC.DTS-HD.MA.5.1-FGT 25.64GB-2.png 灭亡游戏 Game.Of.Death.1978.REMASTERED.1080p.BluRay.REMUX.AVC.DTS-HD.MA.5.1-FGT 25.64GB-3.png 灭亡游戏 Game.Of.Death.1978.REMASTERED.1080p.BluRay.REMUX.AVC.DTS-HD.MA.5.1-FGT 25.64GB-4.png




回复

使用道具 举报

懒得打字嘛,点击右侧快捷回复 【右侧内容,后台自定义】
您需要登录后才可以回帖 登录 | 立即注册

本版积分规则

QQ|Archiver|手机版|小黑屋|中国高清网 |网站地图

GMT+8, 2019-1-17 12:22 , Processed in 0.159455 second(s), 41 queries .

Powered by HDchina X3.4

Copyright 2017-2018©HDchina.All right reserved

返回顶部 联系我们