你所知道的4K资源这里全部都有 4K电影 | 4K视频 | 4K壁纸 | 4K MV 怎么播放4K视频 | 4K电视演示片

教你玩转4K私人与家庭影院存储 NAS组装 | 黑群辉 家庭/影院Nas论坛

4K家庭影院信号源与视频设备知识 4K蓝光高清播放机 - 那个品牌好? 4K投影机论坛 | 4K电视机论坛

手把手教你搭建属于自己的家庭影院 4K家庭影院案例 | 家庭影院音频 4K家庭影院论坛

查看: 141|回复: 3

[科幻片] 迫日营救 Solis.2018.1080p.BluRay.REMUX.AVC.DTS-HD.MA.5.1-FGT 25.00GB

[复制链接]

 成长值: 730

级别:资源管理组

注册时间
2017-10-20
最后登录
2019-3-24
听众
0
收听
0
主题
76515
蓝光币
135276 枚
贡献
146324 点
发表于 2019-1-5 17:10:45 | 显示全部楼层 |阅读模式

迫日救援 Solis.2018.1080p.BluRay.REMUX.AVC.DTS-HD.MA.5.1-FGT 25.00GB-1.jpg
◎译  名 迫日救援
◎片  名 迫日救援 Solis
◎年  代 2017
◎国  家 英国
◎类  别 行动 / 科幻 / 冒险
◎语  言 英语
◎上映日期 2018-06-27(爱丁堡电影节)
◎IMDb评分  5.0/10 from 1,393 users
◎IMDb链接  http://www.imdb.com/title/tt6134274/
◎豆瓣评分 4.2/10 from 190 users
◎豆瓣链接 https://movie.douban.com/subject/26964184/
◎片  长 90分钟
◎导  演 Carl Strathie
◎主  演 Steven Ogg

◎简  介 

  When Troy Holloway wakes up to find himself trapped aboard a drifting escape pod shooting towards the Sun he quickly realises the true terror of his situation. With rapid oxygen depletion and a burn- up rate of 90 minutes, Commander Roberts leads a rescue party to save Holloway before time runs out. Having recently lost his son and now confronted by his immediate end, Holloway feels less enthusiastic about survival. But Roberts, speaking to him only through a weak radio transmission, is determined to save his life, and both soon learn that the lives they have both lived influence each other in unexpected ways.


  1. Video
  2. ID                                       : 1
  3. Format                                   : AVC
  4. Format/Info                              : Advanced Video Codec
  5. Format profile                           : [url=/cdn-cgi/l/email-protection][email protected][/url]
  6. Format settings                          : CABAC / 4 Ref Frames
  7. Format settings, CABAC                   : Yes
  8. Format settings, ReFrames                : 4 frames
  9. Codec ID                                 : V_MPEG4/ISO/AVC
  10. Duration                                 : 1 h 31 min
  11. Bit rate mode                            : Variable
  12. Bit rate                                 : 33.5 Mb/s
  13. Maximum bit rate                         : 36.0 Mb/s
  14. Width                                    : 1 920 pixels
  15. Height                                   : 1 080 pixels
  16. Display aspect ratio                     : 16:9
  17. Frame rate mode                          : Constant
  18. Frame rate                               : 24.000 FPS
  19. Color space                              : YUV
  20. Chroma subsampling                       : 4:2:0
  21. Bit depth                                : 8 bits
  22. Scan type                                : Progressive
  23. Bits/(Pixel*Frame)                       : 0.674
  24. Stream size                              : 21.5 GiB (86%)
  25. Title                                    : Solis.2018.1080p.BluRay.REMUX.AVC.DTS-HD.MA.5.1-FGT
  26. Language                                 : English
  27. Default                                  : No
  28. Forced                                   : No

  29. Audio #1
  30. ID                                       : 2
  31. Format                                   : DTS XLL
  32. Format/Info                              : Digital Theater Systems
  33. Commercial name                          : DTS-HD Master Audio
  34. Codec ID                                 : A_DTS
  35. Duration                                 : 1 h 31 min
  36. Bit rate mode                            : Variable
  37. Bit rate                                 : 3 884 kb/s
  38. Channel(s)                               : 6 channels
  39. Channel layout                           : C L R Ls Rs LFE
  40. Sampling rate                            : 48.0 kHz
  41. Frame rate                               : 93.750 FPS (512 SPF)
  42. Bit depth                                : 24 bits
  43. Compression mode                         : Lossless
  44. Stream size                              : 2.49 GiB (10%)
  45. Title                                    : Solis.2018.1080p.BluRay.REMUX.AVC.DTS-HD.MA.5.1-FGT
  46. Language                                 : English
  47. Default                                  : Yes
  48. Forced                                   : No

  49. Audio #2
  50. ID                                       : 3
  51. Format                                   : DTS
  52. Format/Info                              : Digital Theater Systems
  53. Codec ID                                 : A_DTS
  54. Duration                                 : 1 h 31 min
  55. Bit rate mode                            : Constant
  56. Bit rate                                 : 1 509 kb/s
  57. Channel(s)                               : 6 channels
  58. Channel layout                           : C L R Ls Rs LFE
  59. Sampling rate                            : 48.0 kHz
  60. Frame rate                               : 93.750 FPS (512 SPF)
  61. Bit depth                                : 24 bits
  62. Compression mode                         : Lossy
  63. Stream size                              : 992 MiB (4%)
  64. Title                                    : Solis.2018.1080p.BluRay.REMUX.AVC.DTS-HD.MA.5.1-FGT
  65. Language                                 : English
  66. Default                                  : No
  67. Forced                                   : No

  68. Menu
  69. 00:00:00.000                             : en:Chapter 01
  70. 00:03:02.625                             : en:Chapter 02
  71. 00:07:34.625                             : en:Chapter 03
  72. 00:12:27.625                             : en:Chapter 04
  73. 00:17:46.833                             : en:Chapter 05
  74. 00:23:37.000                             : en:Chapter 06
  75. 00:27:23.000                             : en:Chapter 07
  76. 00:29:26.875                             : en:Chapter 08
  77. 00:34:53.458                             : en:Chapter 09
  78. 00:38:09.500                             : en:Chapter 10
  79. 00:41:50.458                             : en:Chapter 11
  80. 00:45:39.291                             : en:Chapter 12
  81. 00:48:38.625                             : en:Chapter 13
  82. 00:53:55.125                             : en:Chapter 14
  83. 01:00:34.625                             : en:Chapter 15
  84. 01:05:33.458                             : en:Chapter 16
  85. 01:13:24.208                             : en:Chapter 17
  86. 01:18:52.958                             : en:Chapter 18
  87. 01:22:58.250                             : en:Chapter 19
  88. 01:28:14.625                             : en:Chapter 20
复制代码

复制代码

迫日救援 Solis.2018.1080p.BluRay.REMUX.AVC.DTS-HD.MA.5.1-FGT 25.00GB-2.png 迫日救援 Solis.2018.1080p.BluRay.REMUX.AVC.DTS-HD.MA.5.1-FGT 25.00GB-3.png 迫日救援 Solis.2018.1080p.BluRay.REMUX.AVC.DTS-HD.MA.5.1-FGT 25.00GB-4.png





回复

使用道具 举报

级别:荣升主角 Lv.5

注册时间
2018-5-27
最后登录
2019-3-23
听众
4
收听
0
主题
0
蓝光币
17 枚
贡献
0 点
发表于 2019-1-11 21:19:56 | 显示全部楼层
感谢分享!
回复

使用道具 举报

级别:群众演员 Lv.3

注册时间
2018-2-11
最后登录
2019-3-22
听众
2
收听
0
主题
0
蓝光币
37 枚
贡献
0 点
QQ
发表于 2019-1-13 18:57:17 | 显示全部楼层

感谢楼主的无私分享!要想中国高清电影网好 就靠你我他
回复

使用道具 举报

级别:群众演员 Lv.3

注册时间
2018-2-11
最后登录
2019-3-22
听众
2
收听
0
主题
0
蓝光币
37 枚
贡献
0 点
QQ
发表于 2019-1-13 18:57:50 | 显示全部楼层

楼主太厉害了!楼主,电影应该很好看我觉得中国高清电影网真是个好地方!
回复

使用道具 举报

懒得打字嘛,点击右侧快捷回复 【右侧内容,后台自定义】
您需要登录后才可以回帖 登录 | 立即注册

本版积分规则

QQ|Archiver|手机版|小黑屋|中国高清网 |网站地图

GMT+8, 2019-3-24 10:52 , Processed in 0.155559 second(s), 42 queries .

Powered by HDchina X3.4

Copyright 2017-2018©HDchina.All right reserved

返回顶部 联系我们