你所知道的4K资源这里全部都有 4K电影 | 4K视频 | 4K壁纸 | 4K MV 怎么播放4K视频 | 4K电视演示片

教你玩转4K私人与家庭影院存储 NAS组装 | 黑群辉 家庭/影院Nas论坛

4K家庭影院信号源与视频设备知识 4K蓝光高清播放机 - 那个品牌好? 4K投影机论坛 | 4K电视机论坛

手把手教你搭建属于自己的家庭影院 4K家庭影院案例 | 家庭影院音频 4K家庭影院论坛

查看: 36|回复: 1

[喜剧片] 城市乡巴佬/城市滑头 City.Slickers.1991.REMASTERED.1080p.BluRay.REMUX.AVC.DTS-HD.MA.5.1-FGT 26.81GB

[复制链接]

 成长值: 70

级别:资源管理组

UID
1
注册时间
2017-10-20
最后登录
2019-1-17
听众
0
收听
0
主题
73857
蓝光币
114338 枚
贡献
143666 点
发表于 2019-1-4 11:24:18 | 显示全部楼层 |阅读模式

城市乡巴佬/城市狡徒 City.Slickers.1991.REMASTERED.1080p.BluRay.REMUX.AVC.DTS-HD.MA.5.1-FGT 26.81GB-1.jpg
◎译  名 城市乡巴佬 / 城市狡徒
◎片  名 城市乡巴佬 City Slickers
◎年  代 1991
◎国  家 美国
◎类  别 笑剧 / 西部
◎语  言 英语
◎上映日期 1991-06-07(美国)
◎IMDb评分  6.7/10 from 43,406 users
◎IMDb链接  http://www.imdb.com/title/tt0101587/
◎豆瓣评分 7.4/10 from 328 users
◎豆瓣链接 https://movie.douban.com/subject/1303279/
◎片  长 112 分钟
◎导  演 罗恩·安德伍德
◎主  演 比利·克里斯托
      丹尼尔·斯特恩
      布鲁诺·柯比
      杰克·帕兰斯

◎简  介 

  米奇(比利·克里斯托 Billy Crystal 饰)在广播电台的广告部工作,直到三十九岁之前,米奇都以为自己具有着完善而幸运的人生,但是,在此以后,他便起头走上了下坡路,除了奇迹上堕入了瓶颈期外,他的心里也渐渐起头落空平安感,荒凉如同沙漠。
  菲尔(丹尼尔·斯特恩 Daniel Stern 饰)是米奇最好的朋友,终年生活在强势的妻子和岳父的榨取之下,致使他的性情十份外向而压制。某日,一个年轻的女孩忽然出现在了菲尔的身旁,宣称自己怀上了他的孩子。艾德(布鲁诺·柯比 Bruno Kirby 饰)已人到中年,但童年时代的创伤让他对豪情落空了信赖,仍然留连于百花丛中不愿安宁下来。这三个汉子,为了庆贺米奇三十九岁生日而踏上了寻欢作乐的荒诞旅途。

◎获奖情况 

  第64届奥斯卡金像奖 (1992)
  最好男配角 杰克·帕兰斯


  1. Video
  2. ID                                       : 1
  3. Format                                   : AVC
  4. Format/Info                              : Advanced Video Codec
  5. Format profile                           : [url=/cdn-cgi/l/email-protection][email protected][/url]
  6. Format settings                          : CABAC / 4 Ref Frames
  7. Format settings, CABAC                   : Yes
  8. Format settings, ReFrames                : 4 frames
  9. Codec ID                                 : V_MPEG4/ISO/AVC
  10. Duration                                 : 1 h 53 min
  11. Bit rate mode                            : Variable
  12. Bit rate                                 : 25.9 Mb/s
  13. Maximum bit rate                         : 35.9 Mb/s
  14. Width                                    : 1 920 pixels
  15. Height                                   : 1 080 pixels
  16. Display aspect ratio                     : 16:9
  17. Frame rate mode                          : Constant
  18. Frame rate                               : 24.000 FPS
  19. Color space                              : YUV
  20. Chroma subsampling                       : 4:2:0
  21. Bit depth                                : 8 bits
  22. Scan type                                : Progressive
  23. Bits/(Pixel*Frame)                       : 0.520
  24. Stream size                              : 20.6 GiB (77%)
  25. Title                                    : City.Slickers.1991.REMASTERED.1080p.BluRay.REMUX.AVC.DTS-HD.MA.5.1-FGT
  26. Language                                 : English
  27. Default                                  : No
  28. Forced                                   : No

  29. Audio #1
  30. ID                                       : 2
  31. Format                                   : DTS XLL
  32. Format/Info                              : Digital Theater Systems
  33. Commercial name                          : DTS-HD Master Audio
  34. Codec ID                                 : A_DTS
  35. Duration                                 : 1 h 53 min
  36. Bit rate mode                            : Variable
  37. Bit rate                                 : 2 991 kb/s
  38. Channel(s)                               : 6 channels
  39. Channel layout                           : C L R Ls Rs LFE
  40. Sampling rate                            : 48.0 kHz
  41. Frame rate                               : 93.750 FPS (512 SPF)
  42. Bit depth                                : 24 bits
  43. Compression mode                         : Lossless
  44. Stream size                              : 2.38 GiB (9%)
  45. Title                                    : City.Slickers.1991.REMASTERED.1080p.BluRay.REMUX.AVC.DTS-HD.MA.5.1-FGT
  46. Language                                 : English
  47. Default                                  : Yes
  48. Forced                                   : No

  49. Audio #2
  50. ID                                       : 3
  51. Format                                   : DTS
  52. Format/Info                              : Digital Theater Systems
  53. Codec ID                                 : A_DTS
  54. Duration                                 : 1 h 53 min
  55. Bit rate mode                            : Constant
  56. Bit rate                                 : 1 509 kb/s
  57. Channel(s)                               : 6 channels
  58. Channel layout                           : C L R Ls Rs LFE
  59. Sampling rate                            : 48.0 kHz
  60. Frame rate                               : 93.750 FPS (512 SPF)
  61. Bit depth                                : 24 bits
  62. Compression mode                         : Lossy
  63. Stream size                              : 1.20 GiB (4%)
  64. Title                                    : City.Slickers.1991.REMASTERED.1080p.BluRay.REMUX.AVC.DTS-HD.MA.5.1-FGT
  65. Language                                 : English
  66. Default                                  : No
  67. Forced                                   : No

  68. Audio #3
  69. ID                                       : 4
  70. Format                                   : DTS XLL
  71. Format/Info                              : Digital Theater Systems
  72. Commercial name                          : DTS-HD Master Audio
  73. Codec ID                                 : A_DTS
  74. Duration                                 : 1 h 53 min
  75. Bit rate mode                            : Variable
  76. Bit rate                                 : 1 624 kb/s
  77. Channel(s)                               : 2 channels
  78. Channel layout                           : L R
  79. Sampling rate                            : 48.0 kHz
  80. Frame rate                               : 93.750 FPS (512 SPF)
  81. Bit depth                                : 24 bits
  82. Compression mode                         : Lossless
  83. Stream size                              : 1.29 GiB (5%)
  84. Title                                    : City.Slickers.1991.REMASTERED.1080p.BluRay.REMUX.AVC.DTS-HD.MA.5.1-FGT
  85. Language                                 : English
  86. Default                                  : No
  87. Forced                                   : No

  88. Audio #4
  89. ID                                       : 5
  90. Format                                   : DTS
  91. Format/Info                              : Digital Theater Systems
  92. Codec ID                                 : A_DTS
  93. Duration                                 : 1 h 53 min
  94. Bit rate mode                            : Constant
  95. Bit rate                                 : 1 509 kb/s
  96. Channel(s)                               : 2 channels
  97. Channel layout                           : L R
  98. Sampling rate                            : 48.0 kHz
  99. Frame rate                               : 93.750 FPS (512 SPF)
  100. Bit depth                                : 24 bits
  101. Compression mode                         : Lossy
  102. Stream size                              : 1.20 GiB (4%)
  103. Title                                    : City.Slickers.1991.REMASTERED.1080p.BluRay.REMUX.AVC.DTS-HD.MA.5.1-FGT
  104. Language                                 : English
  105. Default                                  : No
  106. Forced                                   : No

  107. Audio #5
  108. ID                                       : 6
  109. Format                                   : AC-3
  110. Format/Info                              : Audio Coding 3
  111. Commercial name                          : Dolby Digital
  112. Codec ID                                 : A_AC3
  113. Duration                                 : 1 h 53 min
  114. Bit rate mode                            : Constant
  115. Bit rate                                 : 192 kb/s
  116. Channel(s)                               : 2 channels
  117. Channel layout                           : L R
  118. Sampling rate                            : 48.0 kHz
  119. Frame rate                               : 31.250 FPS (1536 SPF)
  120. Bit depth                                : 16 bits
  121. Compression mode                         : Lossy
  122. Stream size                              : 156 MiB (1%)
  123. Title                                    : City.Slickers.1991.REMASTERED.1080p.BluRay.REMUX.AVC.DTS-HD.MA.5.1-FGT
  124. Language                                 : English
  125. Service kind                             : Complete Main
  126. Default                                  : No
  127. Forced                                   : No

  128. Text
  129. ID                                       : 7
  130. Format                                   : PGS
  131. Muxing mode                              : zlib
  132. Codec ID                                 : S_HDMV/PGS
  133. Codec ID/Info                            : Picture based subtitle format used on BDs/HD-DVDs
  134. Duration                                 : 1 h 53 min
  135. Bit rate                                 : 43.8 kb/s
  136. Count of elements                        : 3294
  137. Stream size                              : 35.6 MiB (0%)
  138. Title                                    : English-PGS
  139. Language                                 : English
  140. Default                                  : Yes
  141. Forced                                   : No

  142. Menu
  143. 00:00:00.000                             : en:Chapter 01
  144. 00:08:29.416                             : en:Chapter 02
  145. 00:18:15.250                             : en:Chapter 03
  146. 00:25:17.333                             : en:Chapter 04
  147. 00:32:57.750                             : en:Chapter 05
  148. 00:39:19.625                             : en:Chapter 06
  149. 00:48:22.208                             : en:Chapter 07
  150. 00:57:45.583                             : en:Chapter 08
  151. 01:08:20.583                             : en:Chapter 09
  152. 01:17:11.500                             : en:Chapter 10
  153. 01:27:45.375                             : en:Chapter 11
  154. 01:43:29.000                             : en:Chapter 12
复制代码

复制代码

城市乡巴佬/城市狡徒 City.Slickers.1991.REMASTERED.1080p.BluRay.REMUX.AVC.DTS-HD.MA.5.1-FGT 26.81GB-2.png 城市乡巴佬/城市狡徒 City.Slickers.1991.REMASTERED.1080p.BluRay.REMUX.AVC.DTS-HD.MA.5.1-FGT 26.81GB-3.png 城市乡巴佬/城市狡徒 City.Slickers.1991.REMASTERED.1080p.BluRay.REMUX.AVC.DTS-HD.MA.5.1-FGT 26.81GB-4.png





回复

使用道具 举报

级别:专业龙套 Lv.4

UID
4064
注册时间
2018-5-27
最后登录
2019-1-13
听众
3
收听
0
主题
0
蓝光币
1 枚
贡献
0 点
发表于 6 天前 | 显示全部楼层
感谢分享!
回复

使用道具 举报

懒得打字嘛,点击右侧快捷回复 【右侧内容,后台自定义】
您需要登录后才可以回帖 登录 | 立即注册

本版积分规则

QQ|Archiver|手机版|小黑屋|中国高清网 |网站地图

GMT+8, 2019-1-17 13:07 , Processed in 0.155457 second(s), 41 queries .

Powered by HDchina X3.4

Copyright 2017-2018©HDchina.All right reserved

返回顶部 联系我们