你所知道的4K资源这里全部都有 4K电影 | 4K视频 | 4K壁纸 | 4K MV 怎么播放4K视频 | 4K电视演示片

教你玩转4K私人与家庭影院存储 NAS组装 | 黑群辉 家庭/影院Nas论坛

4K家庭影院信号源与视频设备知识 4K蓝光高清播放机 - 那个品牌好? 4K投影机论坛 | 4K电视机论坛

手把手教你搭建属于自己的家庭影院 4K家庭影院案例 | 家庭影院音频 4K家庭影院论坛

查看: 178|回复: 1

[喜剧片] 魔精 Critters.1986.1080p.BluRay.REMUX.AVC.DTS-HD.MA.5.1-FGT 25.38GB

[复制链接]

 成长值: 1670

级别:资源管理组

注册时间
2017-10-20
最后登录
2019-6-25
听众
0
收听
0
主题
78745
蓝光币
28950 枚
贡献
3070 点
发表于 2019-1-3 10:30:24 | 显示全部楼层 |阅读模式

魔精 Critters.1986.1080p.BluRay.REMUX.AVC.DTS-HD.MA.5.1-FGT 25.38GB-1.jpg
◎译  名 魔精
◎片  名 魔精 Critters
◎年  代 1986
◎国  家 美国
◎类  别 笑剧 / 行动 / 科幻 / 惊悚 / 可骇
◎语  言 英语
◎上映日期 1986-04-11
◎IMDb评分  6.0/10 from 27,598 users
◎IMDb链接  http://www.imdb.com/title/tt0090887/
◎豆瓣评分 6.6/10 from 217 users
◎豆瓣链接 https://movie.douban.com/subject/1963478/
◎片  长 82 分钟
◎导  演 斯蒂芬·赫瑞克
◎主  演 Dee Wallace-Stone
      M. Emmet Walsh
      Billy Green Bush
      斯科特·格瑞恩斯

◎简  介 

  在另一个星系的星球上,一个防备级别最高的牢狱中一场逃狱的行动正在停止中,几个死囚来到了地球,这些长满獠牙的牲口都是血腥的透视动物,出格喜好人肉...........


  1. Video
  2. ID                                       : 1
  3. Format                                   : AVC
  4. Format/Info                              : Advanced Video Codec
  5. Format profile                           : [url=/cdn-cgi/l/email-protection][email protected][/url]
  6. Format settings                          : CABAC / 4 Ref Frames
  7. Format settings, CABAC                   : Yes
  8. Format settings, ReFrames                : 4 frames
  9. Codec ID                                 : V_MPEG4/ISO/AVC
  10. Duration                                 : 1 h 25 min
  11. Bit rate mode                            : Constant
  12. Bit rate                                 : 35.0 Mb/s
  13. Width                                    : 1 920 pixels
  14. Height                                   : 1 080 pixels
  15. Display aspect ratio                     : 16:9
  16. Frame rate mode                          : Constant
  17. Frame rate                               : 23.976 (24000/1001) FPS
  18. Color space                              : YUV
  19. Chroma subsampling                       : 4:2:0
  20. Bit depth                                : 8 bits
  21. Scan type                                : Progressive
  22. Bits/(Pixel*Frame)                       : 0.704
  23. Stream size                              : 20.0 GiB (79%)
  24. Title                                    : Critters.1986.1080p.BluRay.REMUX.AVC.DTS-HD.MA.5.1-FGT
  25. Language                                 : English
  26. Default                                  : No
  27. Forced                                   : No

  28. Audio #1
  29. ID                                       : 2
  30. Format                                   : DTS XLL
  31. Format/Info                              : Digital Theater Systems
  32. Commercial name                          : DTS-HD Master Audio
  33. Codec ID                                 : A_DTS
  34. Duration                                 : 1 h 25 min
  35. Bit rate mode                            : Variable
  36. Bit rate                                 : 3 458 kb/s
  37. Channel(s)                               : 6 channels
  38. Channel layout                           : C L R Ls Rs LFE
  39. Sampling rate                            : 48.0 kHz
  40. Frame rate                               : 93.750 FPS (512 SPF)
  41. Bit depth                                : 24 bits
  42. Compression mode                         : Lossless
  43. Stream size                              : 2.07 GiB (8%)
  44. Title                                    : Critters.1986.1080p.BluRay.REMUX.AVC.DTS-HD.MA.5.1-FGT
  45. Language                                 : English
  46. Default                                  : Yes
  47. Forced                                   : No

  48. Audio #2
  49. ID                                       : 3
  50. Format                                   : DTS
  51. Format/Info                              : Digital Theater Systems
  52. Codec ID                                 : A_DTS
  53. Duration                                 : 1 h 25 min
  54. Bit rate mode                            : Constant
  55. Bit rate                                 : 1 509 kb/s
  56. Channel(s)                               : 6 channels
  57. Channel layout                           : C L R Ls Rs LFE
  58. Sampling rate                            : 48.0 kHz
  59. Frame rate                               : 93.750 FPS (512 SPF)
  60. Bit depth                                : 24 bits
  61. Compression mode                         : Lossy
  62. Stream size                              : 925 MiB (4%)
  63. Title                                    : Critters.1986.1080p.BluRay.REMUX.AVC.DTS-HD.MA.5.1-FGT
  64. Language                                 : English
  65. Default                                  : No
  66. Forced                                   : No

  67. Audio #3
  68. ID                                       : 4
  69. Format                                   : DTS XLL
  70. Format/Info                              : Digital Theater Systems
  71. Commercial name                          : DTS-HD Master Audio
  72. Codec ID                                 : A_DTS
  73. Duration                                 : 1 h 25 min
  74. Bit rate mode                            : Variable
  75. Bit rate                                 : 2 012 kb/s
  76. Channel(s)                               : 2 channels
  77. Channel layout                           : L R
  78. Sampling rate                            : 48.0 kHz
  79. Frame rate                               : 93.750 FPS (512 SPF)
  80. Bit depth                                : 24 bits
  81. Compression mode                         : Lossless
  82. Stream size                              : 1.20 GiB (5%)
  83. Title                                    : Critters.1986.1080p.BluRay.REMUX.AVC.DTS-HD.MA.5.1-FGT
  84. Language                                 : English
  85. Default                                  : No
  86. Forced                                   : No

  87. Audio #4
  88. ID                                       : 5
  89. Format                                   : DTS
  90. Format/Info                              : Digital Theater Systems
  91. Codec ID                                 : A_DTS
  92. Duration                                 : 1 h 25 min
  93. Bit rate mode                            : Constant
  94. Bit rate                                 : 1 509 kb/s
  95. Channel(s)                               : 2 channels
  96. Channel layout                           : L R
  97. Sampling rate                            : 48.0 kHz
  98. Frame rate                               : 93.750 FPS (512 SPF)
  99. Bit depth                                : 24 bits
  100. Compression mode                         : Lossy
  101. Stream size                              : 925 MiB (4%)
  102. Title                                    : Critters.1986.1080p.BluRay.REMUX.AVC.DTS-HD.MA.5.1-FGT
  103. Language                                 : English
  104. Default                                  : No
  105. Forced                                   : No

  106. Audio #5
  107. ID                                       : 6
  108. Format                                   : AC-3
  109. Format/Info                              : Audio Coding 3
  110. Commercial name                          : Dolby Digital
  111. Codec ID                                 : A_AC3
  112. Duration                                 : 1 h 25 min
  113. Bit rate mode                            : Constant
  114. Bit rate                                 : 192 kb/s
  115. Channel(s)                               : 2 channels
  116. Channel layout                           : L R
  117. Sampling rate                            : 48.0 kHz
  118. Frame rate                               : 31.250 FPS (1536 SPF)
  119. Bit depth                                : 16 bits
  120. Compression mode                         : Lossy
  121. Stream size                              : 118 MiB (0%)
  122. Title                                    : Critters.1986.1080p.BluRay.REMUX.AVC.DTS-HD.MA.5.1-FGT
  123. Language                                 : English
  124. Service kind                             : Complete Main
  125. Default                                  : No
  126. Forced                                   : No

  127. Audio #6
  128. ID                                       : 7
  129. Format                                   : AC-3
  130. Format/Info                              : Audio Coding 3
  131. Commercial name                          : Dolby Digital
  132. Codec ID                                 : A_AC3
  133. Duration                                 : 1 h 25 min
  134. Bit rate mode                            : Constant
  135. Bit rate                                 : 192 kb/s
  136. Channel(s)                               : 2 channels
  137. Channel layout                           : L R
  138. Sampling rate                            : 48.0 kHz
  139. Frame rate                               : 31.250 FPS (1536 SPF)
  140. Bit depth                                : 16 bits
  141. Compression mode                         : Lossy
  142. Stream size                              : 118 MiB (0%)
  143. Title                                    : Critters.1986.1080p.BluRay.REMUX.AVC.DTS-HD.MA.5.1-FGT
  144. Language                                 : English
  145. Service kind                             : Complete Main
  146. Default                                  : No
  147. Forced                                   : No

  148. Text
  149. ID                                       : 8
  150. Format                                   : PGS
  151. Muxing mode                              : zlib
  152. Codec ID                                 : S_HDMV/PGS
  153. Codec ID/Info                            : Picture based subtitle format used on BDs/HD-DVDs
  154. Duration                                 : 1 h 25 min
  155. Bit rate                                 : 47.1 kb/s
  156. Count of elements                        : 2402
  157. Stream size                              : 28.8 MiB (0%)
  158. Title                                    : English-PGS
  159. Language                                 : English
  160. Default                                  : Yes
  161. Forced                                   : No

  162. Menu
  163. 00:00:00.000                             : en:Chapter 01
  164. 00:04:53.418                             : en:Chapter 02
  165. 00:13:40.319                             : en:Chapter 03
  166. 00:20:46.119                             : en:Chapter 04
  167. 00:26:51.568                             : en:Chapter 05
  168. 00:34:30.318                             : en:Chapter 06
  169. 00:42:34.677                             : en:Chapter 07
  170. 00:50:13.969                             : en:Chapter 08
  171. 00:59:12.757                             : en:Chapter 09
  172. 01:06:22.603                             : en:Chapter 10
  173. 01:11:56.478                             : en:Chapter 11
  174. 01:18:38.505                             : en:Chapter 12
复制代码

复制代码

魔精 Critters.1986.1080p.BluRay.REMUX.AVC.DTS-HD.MA.5.1-FGT 25.38GB-2.png 魔精 Critters.1986.1080p.BluRay.REMUX.AVC.DTS-HD.MA.5.1-FGT 25.38GB-3.png 魔精 Critters.1986.1080p.BluRay.REMUX.AVC.DTS-HD.MA.5.1-FGT 25.38GB-4.png





回复

使用道具 举报

级别:荣升主角 Lv.5

注册时间
2018-11-29
最后登录
2019-6-24
听众
7
收听
0
主题
0
蓝光币
704 枚
贡献
0 点
QQ
发表于 2019-2-14 18:00:56 | 显示全部楼层

我看不错噢 谢谢楼主!中国高清电影网越来越好!
回复

使用道具 举报

*滑动验证:
懒得打字嘛,点击右侧快捷回复 【右侧内容,后台自定义】
您需要登录后才可以回帖 登录 | 立即注册

本版积分规则

QQ|Archiver|手机版|小黑屋| 中国高清网 |网站地图

GMT+8, 2019-6-25 01:45 , Processed in 0.309533 second(s), 45 queries .

Powered by HDchina X3.4

Copyright 2017-2019©HDchina.All right reserved

返回顶部 联系我们