你所知道的4K资源这里全部都有 4K电影 | 4K视频 | 4K壁纸 | 4K MV 怎么播放4K视频 | 4K电视演示片

教你玩转4K私人与家庭影院存储 NAS组装 | 黑群辉 家庭/影院Nas论坛

4K家庭影院信号源与视频设备知识 4K蓝光高清播放机 - 那个品牌好? 4K投影机论坛 | 4K电视机论坛

手把手教你搭建属于自己的家庭影院 4K家庭影院案例 | 家庭影院音频 4K家庭影院论坛

查看: 66|回复: 1

[喜剧片] 魔精2/外星通缉者 2 Critters.2.1988.1080p.BluRay.REMUX.AVC.DTS-HD.MA.2.0-FGT 22.48GB

[复制链接]

 成长值: 710

级别:资源管理组

注册时间
2017-10-20
最后登录
2019-3-22
听众
0
收听
0
主题
76497
蓝光币
134731 枚
贡献
146306 点
发表于 2019-1-3 10:30:03 | 显示全部楼层 |阅读模式

魔精2/外星通缉者 2 Critters.2.1988.1080p.BluRay.REMUX.AVC.DTS-HD.MA.2.0-FGT 22.48GB-1.jpg
◎译  名 魔精2 / 外星通缉者 2 / 魔精 2
◎片  名 魔精2 Critters 2: The Main Course
◎年  代 1988
◎国  家 美国
◎类  别 笑剧 / 科幻 / 惊悚 / 可骇
◎语  言 英语
◎上映日期 1988-04-29
◎IMDb评分  5.4/10 from 12,114 users
◎IMDb链接  http://www.imdb.com/title/tt0094919/
◎豆瓣评分 6.5/10 from 115 users
◎豆瓣链接 https://movie.douban.com/subject/1301108/
◎片  长 86分钟
◎导  演 Mick Garris
◎主  演 Terrence Mann
      Don Keith Opper
      Cynthia Garris
      斯科特·格瑞恩斯

◎简  介 

  两年前的小镇,外星猎者一举消灭流亡地球的小魔怪,两年后幸存的一批魔蛋,却被不知情的镇民作成新生节蛋。阳光下小魔种纷纷破壳而出,张口便吃人狗牲口,小镇酿成血腥遍地,恍如黄泉。这回,外星猎者会再搭救他们,还是阵毁人亡,今后再舆图上消失?


  1. Video
  2. ID                                       : 1
  3. Format                                   : AVC
  4. Format/Info                              : Advanced Video Codec
  5. Format profile                           : [url=/cdn-cgi/l/email-protection][email protected][/url]
  6. Format settings                          : CABAC / 4 Ref Frames
  7. Format settings, CABAC                   : Yes
  8. Format settings, ReFrames                : 4 frames
  9. Codec ID                                 : V_MPEG4/ISO/AVC
  10. Duration                                 : 1 h 25 min
  11. Bit rate mode                            : Constant
  12. Bit rate                                 : 35.0 Mb/s
  13. Width                                    : 1 920 pixels
  14. Height                                   : 1 080 pixels
  15. Display aspect ratio                     : 16:9
  16. Frame rate mode                          : Constant
  17. Frame rate                               : 23.976 (24000/1001) FPS
  18. Color space                              : YUV
  19. Chroma subsampling                       : 4:2:0
  20. Bit depth                                : 8 bits
  21. Scan type                                : Progressive
  22. Bits/(Pixel*Frame)                       : 0.704
  23. Stream size                              : 20.1 GiB (90%)
  24. Title                                    : Critters.2.1988.1080p.BluRay.REMUX.AVC.DTS-HD.MA.2.0-FGT
  25. Language                                 : English
  26. Default                                  : No
  27. Forced                                   : No

  28. Audio #1
  29. ID                                       : 2
  30. Format                                   : DTS XLL
  31. Format/Info                              : Digital Theater Systems
  32. Commercial name                          : DTS-HD Master Audio
  33. Codec ID                                 : A_DTS
  34. Duration                                 : 1 h 25 min
  35. Bit rate mode                            : Variable
  36. Bit rate                                 : 2 007 kb/s
  37. Channel(s)                               : 2 channels
  38. Channel layout                           : L R
  39. Sampling rate                            : 48.0 kHz
  40. Frame rate                               : 93.750 FPS (512 SPF)
  41. Bit depth                                : 24 bits
  42. Compression mode                         : Lossless
  43. Stream size                              : 1.20 GiB (5%)
  44. Title                                    : Critters.2.1988.1080p.BluRay.REMUX.AVC.DTS-HD.MA.2.0-FGT
  45. Language                                 : English
  46. Default                                  : Yes
  47. Forced                                   : No

  48. Audio #2
  49. ID                                       : 3
  50. Format                                   : DTS
  51. Format/Info                              : Digital Theater Systems
  52. Codec ID                                 : A_DTS
  53. Duration                                 : 1 h 25 min
  54. Bit rate mode                            : Constant
  55. Bit rate                                 : 1 509 kb/s
  56. Channel(s)                               : 2 channels
  57. Channel layout                           : L R
  58. Sampling rate                            : 48.0 kHz
  59. Frame rate                               : 93.750 FPS (512 SPF)
  60. Bit depth                                : 24 bits
  61. Compression mode                         : Lossy
  62. Stream size                              : 925 MiB (4%)
  63. Title                                    : Critters.2.1988.1080p.BluRay.REMUX.AVC.DTS-HD.MA.2.0-FGT
  64. Language                                 : English
  65. Default                                  : No
  66. Forced                                   : No

  67. Audio #3
  68. ID                                       : 4
  69. Format                                   : AC-3
  70. Format/Info                              : Audio Coding 3
  71. Commercial name                          : Dolby Digital
  72. Codec ID                                 : A_AC3
  73. Duration                                 : 1 h 25 min
  74. Bit rate mode                            : Constant
  75. Bit rate                                 : 192 kb/s
  76. Channel(s)                               : 2 channels
  77. Channel layout                           : L R
  78. Sampling rate                            : 48.0 kHz
  79. Frame rate                               : 31.250 FPS (1536 SPF)
  80. Bit depth                                : 16 bits
  81. Compression mode                         : Lossy
  82. Stream size                              : 118 MiB (1%)
  83. Title                                    : Critters.2.1988.1080p.BluRay.REMUX.AVC.DTS-HD.MA.2.0-FGT
  84. Language                                 : English
  85. Service kind                             : Complete Main
  86. Default                                  : No
  87. Forced                                   : No

  88. Audio #4
  89. ID                                       : 5
  90. Format                                   : AC-3
  91. Format/Info                              : Audio Coding 3
  92. Commercial name                          : Dolby Digital
  93. Codec ID                                 : A_AC3
  94. Duration                                 : 1 h 25 min
  95. Bit rate mode                            : Constant
  96. Bit rate                                 : 192 kb/s
  97. Channel(s)                               : 2 channels
  98. Channel layout                           : L R
  99. Sampling rate                            : 48.0 kHz
  100. Frame rate                               : 31.250 FPS (1536 SPF)
  101. Bit depth                                : 16 bits
  102. Compression mode                         : Lossy
  103. Stream size                              : 118 MiB (1%)
  104. Title                                    : Critters.2.1988.1080p.BluRay.REMUX.AVC.DTS-HD.MA.2.0-FGT
  105. Language                                 : English
  106. Service kind                             : Complete Main
  107. Default                                  : No
  108. Forced                                   : No

  109. Text
  110. ID                                       : 6
  111. Format                                   : PGS
  112. Muxing mode                              : zlib
  113. Codec ID                                 : S_HDMV/PGS
  114. Codec ID/Info                            : Picture based subtitle format used on BDs/HD-DVDs
  115. Duration                                 : 1 h 23 min
  116. Bit rate                                 : 41.2 kb/s
  117. Count of elements                        : 2150
  118. Stream size                              : 24.5 MiB (0%)
  119. Title                                    : English-PGS
  120. Language                                 : English
  121. Default                                  : Yes
  122. Forced                                   : No

  123. Menu
  124. 00:00:00.000                             : en:Chapter 01
  125. 00:07:13.099                             : en:Chapter 02
  126. 00:14:27.199                             : en:Chapter 03
  127. 00:21:06.556                             : en:Chapter 04
  128. 00:27:45.580                             : en:Chapter 05
  129. 00:34:34.739                             : en:Chapter 06
  130. 00:42:34.510                             : en:Chapter 07
  131. 00:49:02.773                             : en:Chapter 08
  132. 00:55:35.290                             : en:Chapter 09
  133. 01:03:04.614                             : en:Chapter 10
  134. 01:08:52.086                             : en:Chapter 11
  135. 01:17:16.673                             : en:Chapter 12
复制代码

复制代码

魔精2/外星通缉者 2 Critters.2.1988.1080p.BluRay.REMUX.AVC.DTS-HD.MA.2.0-FGT 22.48GB-2.png 魔精2/外星通缉者 2 Critters.2.1988.1080p.BluRay.REMUX.AVC.DTS-HD.MA.2.0-FGT 22.48GB-3.png 魔精2/外星通缉者 2 Critters.2.1988.1080p.BluRay.REMUX.AVC.DTS-HD.MA.2.0-FGT 22.48GB-4.png





回复

使用道具 举报

级别:专业龙套 Lv.4

注册时间
2018-11-29
最后登录
2019-3-22
听众
1
收听
0
主题
0
蓝光币
495 枚
贡献
0 点
QQ
发表于 2019-2-14 18:01:37 | 显示全部楼层

这东西我收了!谢谢楼主!中国高清电影网真好!
回复

使用道具 举报

懒得打字嘛,点击右侧快捷回复 【右侧内容,后台自定义】
您需要登录后才可以回帖 登录 | 立即注册

本版积分规则

QQ|Archiver|手机版|小黑屋|中国高清网 |网站地图

GMT+8, 2019-3-22 09:52 , Processed in 0.249789 second(s), 42 queries .

Powered by HDchina X3.4

Copyright 2017-2018©HDchina.All right reserved

返回顶部 联系我们