你所知道的4K资源这里全部都有 4K电影 | 4K视频 | 4K壁纸 | 4K MV 怎么播放4K视频 | 4K电视演示片

教你玩转4K私人与家庭影院存储 NAS组装 | 黑群辉 家庭/影院Nas论坛

4K家庭影院信号源与视频设备知识 4K蓝光高清播放机 - 那个品牌好? 4K投影机论坛 | 4K电视机论坛

手把手教你搭建属于自己的家庭影院 4K家庭影院案例 | 家庭影院音频 4K家庭影院论坛

查看: 76|回复: 2

[喜剧片] 魔精3/魔精 3 Critters.3.1991.1080p.BluRay.REMUX.AVC.DTS-HD.MA.2.0-FGT 23.98GB

[复制链接]

 成长值: 730

级别:资源管理组

注册时间
2017-10-20
最后登录
2019-3-24
听众
0
收听
0
主题
76515
蓝光币
135278 枚
贡献
146324 点
发表于 2019-1-3 10:29:17 | 显示全部楼层 |阅读模式

魔精3/魔精 3 Critters.3.1991.1080p.BluRay.REMUX.AVC.DTS-HD.MA.2.0-FGT 23.98GB-1.jpg
◎译  名 魔精3 / 魔精 3
◎片  名 魔精3 Critters 3
◎年  代 1991
◎国  家 美国
◎类  别 笑剧 / 科幻 / 惊悚 / 可骇
◎语  言 英语
◎上映日期 1994-03-09
◎IMDb评分  4.3/10 from 9,684 users
◎IMDb链接  http://www.imdb.com/title/tt0101627/
◎豆瓣评分 6.1/10 from 179 users
◎豆瓣链接 https://movie.douban.com/subject/1963479/
◎片  长 86 分钟
◎导  演 Kristine Peterson
◎主  演 John Calvin
      Aimee Brooks
      Christian Cousins
      莱昂纳多·迪卡普里奥

◎简  介 

  在一个阴阳交接的地方有另一个洛杉矶,茹毛嗜血可骇生物把那边的一个街区的人们逼向了生死边沿。。。。超年轻的:莱昂纳多·迪卡普里奥 在里面饰演了一个帅气的小孩~


  1. Video
  2. ID                                       : 1
  3. Format                                   : AVC
  4. Format/Info                              : Advanced Video Codec
  5. Format profile                           : [url=/cdn-cgi/l/email-protection][email protected][/url]
  6. Format settings                          : CABAC / 4 Ref Frames
  7. Format settings, CABAC                   : Yes
  8. Format settings, ReFrames                : 4 frames
  9. Codec ID                                 : V_MPEG4/ISO/AVC
  10. Duration                                 : 1 h 24 min
  11. Bit rate mode                            : Constant
  12. Bit rate                                 : 35.0 Mb/s
  13. Width                                    : 1 920 pixels
  14. Height                                   : 1 080 pixels
  15. Display aspect ratio                     : 16:9
  16. Frame rate mode                          : Constant
  17. Frame rate                               : 23.976 (24000/1001) FPS
  18. Color space                              : YUV
  19. Chroma subsampling                       : 4:2:0
  20. Bit depth                                : 8 bits
  21. Scan type                                : Progressive
  22. Bits/(Pixel*Frame)                       : 0.704
  23. Stream size                              : 19.8 GiB (83%)
  24. Title                                    : Critters.3.1991.1080p.BluRay.REMUX.AVC.DTS-HD.MA.2.0-FGT
  25. Language                                 : English
  26. Default                                  : No
  27. Forced                                   : No

  28. Audio #1
  29. ID                                       : 2
  30. Format                                   : DTS XLL
  31. Format/Info                              : Digital Theater Systems
  32. Commercial name                          : DTS-HD Master Audio
  33. Codec ID                                 : A_DTS
  34. Duration                                 : 1 h 24 min
  35. Bit rate mode                            : Variable
  36. Bit rate                                 : 2 002 kb/s
  37. Channel(s)                               : 2 channels
  38. Channel layout                           : L R
  39. Sampling rate                            : 48.0 kHz
  40. Frame rate                               : 93.750 FPS (512 SPF)
  41. Bit depth                                : 24 bits
  42. Compression mode                         : Lossless
  43. Stream size                              : 1.19 GiB (5%)
  44. Title                                    : Critters.3.1991.1080p.BluRay.REMUX.AVC.DTS-HD.MA.2.0-FGT
  45. Language                                 : English
  46. Default                                  : Yes
  47. Forced                                   : No

  48. Audio #2
  49. ID                                       : 3
  50. Format                                   : DTS
  51. Format/Info                              : Digital Theater Systems
  52. Codec ID                                 : A_DTS
  53. Duration                                 : 1 h 24 min
  54. Bit rate mode                            : Constant
  55. Bit rate                                 : 1 509 kb/s
  56. Channel(s)                               : 2 channels
  57. Channel layout                           : L R
  58. Sampling rate                            : 48.0 kHz
  59. Frame rate                               : 93.750 FPS (512 SPF)
  60. Bit depth                                : 24 bits
  61. Compression mode                         : Lossy
  62. Stream size                              : 915 MiB (4%)
  63. Title                                    : Critters.3.1991.1080p.BluRay.REMUX.AVC.DTS-HD.MA.2.0-FGT
  64. Language                                 : English
  65. Default                                  : No
  66. Forced                                   : No

  67. Audio #3
  68. ID                                       : 4
  69. Format                                   : DTS XLL
  70. Format/Info                              : Digital Theater Systems
  71. Commercial name                          : DTS-HD Master Audio
  72. Codec ID                                 : A_DTS
  73. Duration                                 : 1 h 24 min
  74. Bit rate mode                            : Variable
  75. Bit rate                                 : 1 966 kb/s
  76. Channel(s)                               : 2 channels
  77. Channel layout                           : L R
  78. Sampling rate                            : 48.0 kHz
  79. Frame rate                               : 93.750 FPS (512 SPF)
  80. Bit depth                                : 24 bits
  81. Compression mode                         : Lossless
  82. Stream size                              : 1.16 GiB (5%)
  83. Title                                    : Critters.3.1991.1080p.BluRay.REMUX.AVC.DTS-HD.MA.2.0-FGT
  84. Language                                 : English
  85. Default                                  : No
  86. Forced                                   : No

  87. Audio #4
  88. ID                                       : 5
  89. Format                                   : DTS
  90. Format/Info                              : Digital Theater Systems
  91. Codec ID                                 : A_DTS
  92. Duration                                 : 1 h 24 min
  93. Bit rate mode                            : Constant
  94. Bit rate                                 : 1 509 kb/s
  95. Channel(s)                               : 2 channels
  96. Channel layout                           : L R
  97. Sampling rate                            : 48.0 kHz
  98. Frame rate                               : 93.750 FPS (512 SPF)
  99. Bit depth                                : 24 bits
  100. Compression mode                         : Lossy
  101. Stream size                              : 915 MiB (4%)
  102. Title                                    : Critters.3.1991.1080p.BluRay.REMUX.AVC.DTS-HD.MA.2.0-FGT
  103. Language                                 : English
  104. Default                                  : No
  105. Forced                                   : No

  106. Text
  107. ID                                       : 6
  108. Format                                   : PGS
  109. Muxing mode                              : zlib
  110. Codec ID                                 : S_HDMV/PGS
  111. Codec ID/Info                            : Picture based subtitle format used on BDs/HD-DVDs
  112. Duration                                 : 1 h 23 min
  113. Bit rate                                 : 48.8 kb/s
  114. Count of elements                        : 2736
  115. Stream size                              : 29.3 MiB (0%)
  116. Title                                    : English-PGS
  117. Language                                 : English
  118. Default                                  : Yes
  119. Forced                                   : No

  120. Menu
  121. 00:00:00.000                             : en:Chapter 01
  122. 00:06:56.916                             : en:Chapter 02
  123. 00:14:55.477                             : en:Chapter 03
  124. 00:22:07.492                             : en:Chapter 04
  125. 00:28:13.566                             : en:Chapter 05
  126. 00:33:53.281                             : en:Chapter 06
  127. 00:40:28.426                             : en:Chapter 07
  128. 00:47:18.168                             : en:Chapter 08
  129. 00:54:21.716                             : en:Chapter 09
  130. 01:00:59.656                             : en:Chapter 10
  131. 01:08:20.054                             : en:Chapter 11
  132. 01:15:37.407                             : en:Chapter 12
复制代码

复制代码

魔精3/魔精 3 Critters.3.1991.1080p.BluRay.REMUX.AVC.DTS-HD.MA.2.0-FGT 23.98GB-2.png 魔精3/魔精 3 Critters.3.1991.1080p.BluRay.REMUX.AVC.DTS-HD.MA.2.0-FGT 23.98GB-3.png 魔精3/魔精 3 Critters.3.1991.1080p.BluRay.REMUX.AVC.DTS-HD.MA.2.0-FGT 23.98GB-4.png





回复

使用道具 举报

级别:荣升主角 Lv.5

注册时间
2018-5-27
最后登录
2019-3-23
听众
4
收听
0
主题
0
蓝光币
17 枚
贡献
0 点
发表于 2019-1-11 21:35:31 | 显示全部楼层
感谢分享!
回复

使用道具 举报

级别:专业龙套 Lv.4

注册时间
2018-11-29
最后登录
2019-3-24
听众
1
收听
0
主题
0
蓝光币
505 枚
贡献
0 点
QQ
发表于 2019-2-14 18:02:35 | 显示全部楼层

这东西我收了!谢谢楼主!中国高清电影网真好!
回复

使用道具 举报

懒得打字嘛,点击右侧快捷回复 【右侧内容,后台自定义】
您需要登录后才可以回帖 登录 | 立即注册

本版积分规则

QQ|Archiver|手机版|小黑屋|中国高清网 |网站地图

GMT+8, 2019-3-24 11:08 , Processed in 0.227698 second(s), 40 queries .

Powered by HDchina X3.4

Copyright 2017-2018©HDchina.All right reserved

返回顶部 联系我们