你所知道的4K资源这里全部都有 4K电影 | 4K视频 | 4K壁纸 | 4K MV 怎么播放4K视频 | 4K电视演示片

教你玩转4K私人与家庭影院存储 NAS组装 | 黑群辉 家庭/影院Nas论坛

4K家庭影院信号源与视频设备知识 4K蓝光高清播放机 - 那个品牌好? 4K投影机论坛 | 4K电视机论坛

手把手教你搭建属于自己的家庭影院 4K家庭影院案例 | 家庭影院音频 4K家庭影院论坛

查看: 174|回复: 3

[剧情片] 敌后大爆破/轰炸鲁尔水坝记 The.Dam.Busters.1955.REMASTERED.WS.1080p.BluRay.REMUX.AVC.DTS-HD.MA.2.0-FGT 20.15GB

[复制链接]

 成长值: 1670

级别:资源管理组

注册时间
2017-10-20
最后登录
2019-6-25
听众
0
收听
0
主题
78745
蓝光币
28946 枚
贡献
3070 点
发表于 2019-1-3 10:26:10 | 显示全部楼层 |阅读模式

敌后大爆破/轰炸鲁尔水坝记 The.Dam.Busters.1955.REMASTERED.WS.1080p.BluRay.REMUX.AVC.DTS-HD.MA.2.0-FGT 20.15GB-1.jpg
◎译  名 敌后大爆破 / 轰炸鲁尔水坝记 / 敌后大轰炸
◎片  名 敌后大爆破 The Dam Busters
◎年  代 1955
◎国  家 英国
◎类  别 剧情 / 历史 / 战争
◎语  言 英语
◎上映日期 1955-05-16(英国)
◎IMDb评分  7.4/10 from 8,602 users
◎IMDb链接  http://www.imdb.com/title/tt0046889/
◎豆瓣评分 7.1/10 from 104 users
◎豆瓣链接 https://movie.douban.com/subject/1298856/
◎片  长 124 分钟
◎导  演 迈克尔·安德森
◎主  演 迈克尔·雷德格瑞夫
      厄休拉·杰尼斯
      查尔斯·卡森
      斯坦利·范比尔斯
      科林·塔普利
      弗雷德里克·莱斯特
      Eric Messiter
      Laidman Browne
      Raymond Huntley
      Hugh Manning

◎简  介 

  1954年的英国电影《轰炸鲁尔水坝记》 (The Dam Busters),这部电影几近以记载片的形式记录了第二次天下大战中1943年5月16日早晨英国皇家空军履行的“惩戒行动”。
  This film, details the Allied efforts to target German dams during World War Two. In very methodical, but also enthusiastic fashion, they figured out what plane, what bomb, what angle, what altitude, etc., were necessary to inflict maximum damage to the dams, while minimizing losses to the planes. The answer they came up with, sounds absurd, but it worked: very large, cylindrical bombs rotating backwards at a high rate of speed, causing them, when dropped, to skip along the sureface of the water, right up to the base of the dam.
  要炸掉水坝,可不是轻易的工作,电影具体先容了炸弹设想者的设想进程,以及英国军方采用这个计划的进程(由于乍听起来实在像是天方夜谭),这个电影看起来决不有趣,甚至是相当使人冲动地。该片获第28届奥斯卡最好结果奖提名及第9届英国电影学院最好电影,最好英国电影和最好编剧3项提名。

◎获奖情况 

  第28届奥斯卡金像奖 (1956)
  最好殊效(提名)


  1. Video
  2. ID                                       : 1
  3. Format                                   : AVC
  4. Format/Info                              : Advanced Video Codec
  5. Format profile                           : [url=/cdn-cgi/l/email-protection][email protected][/url]
  6. Format settings                          : CABAC / 4 Ref Frames
  7. Format settings, CABAC                   : Yes
  8. Format settings, ReFrames                : 4 frames
  9. Codec ID                                 : V_MPEG4/ISO/AVC
  10. Duration                                 : 2 h 4 min
  11. Bit rate mode                            : Variable
  12. Bit rate                                 : 20.0 Mb/s
  13. Maximum bit rate                         : 36.0 Mb/s
  14. Width                                    : 1 920 pixels
  15. Height                                   : 1 080 pixels
  16. Display aspect ratio                     : 16:9
  17. Frame rate mode                          : Constant
  18. Frame rate                               : 24.000 FPS
  19. Standard                                 : NTSC
  20. Color space                              : YUV
  21. Chroma subsampling                       : 4:2:0
  22. Bit depth                                : 8 bits
  23. Scan type                                : Progressive
  24. Bits/(Pixel*Frame)                       : 0.402
  25. Stream size                              : 17.5 GiB (87%)
  26. Title                                    : The.Dam.Busters.1955.REMASTERED.WS.1080p.BluRay.REMUX.AVC.DTS-HD.MA.2.0-FGT
  27. Language                                 : English
  28. Default                                  : No
  29. Forced                                   : No
  30. Color range                              : Limited
  31. Color primaries                          : BT.709
  32. Transfer characteristics                 : BT.709
  33. Matrix coefficients                      : BT.709

  34. Audio #1
  35. ID                                       : 2
  36. Format                                   : DTS XLL
  37. Format/Info                              : Digital Theater Systems
  38. Commercial name                          : DTS-HD Master Audio
  39. Codec ID                                 : A_DTS
  40. Duration                                 : 2 h 4 min
  41. Bit rate mode                            : Variable
  42. Bit rate                                 : 1 564 kb/s
  43. Channel(s)                               : 2 channels
  44. Sampling rate                            : 48.0 kHz
  45. Frame rate                               : 93.750 FPS (512 SPF)
  46. Bit depth                                : 16 bits
  47. Compression mode                         : Lossless
  48. Stream size                              : 1.36 GiB (7%)
  49. Title                                    : The.Dam.Busters.1955.REMASTERED.WS.1080p.BluRay.REMUX.AVC.DTS-HD.MA.2.0-FGT
  50. Language                                 : English
  51. Default                                  : Yes
  52. Forced                                   : No

  53. Audio #2
  54. ID                                       : 3
  55. Format                                   : DTS
  56. Format/Info                              : Digital Theater Systems
  57. Codec ID                                 : A_DTS
  58. Duration                                 : 2 h 4 min
  59. Bit rate mode                            : Constant
  60. Bit rate                                 : 1 509 kb/s
  61. Channel(s)                               : 2 channels
  62. Channel layout                           : Lt Rt
  63. Sampling rate                            : 48.0 kHz
  64. Frame rate                               : 93.750 FPS (512 SPF)
  65. Bit depth                                : 16 bits
  66. Compression mode                         : Lossy
  67. Stream size                              : 1.32 GiB (7%)
  68. Title                                    : The.Dam.Busters.1955.REMASTERED.WS.1080p.BluRay.REMUX.AVC.DTS-HD.MA.2.0-FGT
  69. Language                                 : English
  70. Default                                  : No
  71. Forced                                   : No

  72. Text
  73. ID                                       : 4
  74. Format                                   : PGS
  75. Muxing mode                              : zlib
  76. Codec ID                                 : S_HDMV/PGS
  77. Codec ID/Info                            : Picture based subtitle format used on BDs/HD-DVDs
  78. Duration                                 : 2 h 3 min
  79. Bit rate                                 : 37.2 kb/s
  80. Count of elements                        : 2896
  81. Stream size                              : 32.7 MiB (0%)
  82. Title                                    : English-PGS
  83. Language                                 : English
  84. Default                                  : No
  85. Forced                                   : No

  86. Menu
  87. 00:00:00.000                             : en:Chapter 01
  88. 00:09:20.375                             : en:Chapter 02
  89. 00:18:35.166                             : en:Chapter 03
  90. 00:30:55.458                             : en:Chapter 04
  91. 00:39:59.125                             : en:Chapter 05
  92. 00:51:44.666                             : en:Chapter 06
  93. 01:07:07.750                             : en:Chapter 07
  94. 01:19:54.208                             : en:Chapter 08
  95. 01:28:33.708                             : en:Chapter 09
  96. 01:37:27.333                             : en:Chapter 10
  97. 01:49:01.875                             : en:Chapter 11
  98. 01:59:19.833                             : en:Chapter 12
复制代码

复制代码

敌后大爆破/轰炸鲁尔水坝记 The.Dam.Busters.1955.REMASTERED.WS.1080p.BluRay.REMUX.AVC.DTS-HD.MA.2.0-FGT 20.15GB-2.png 敌后大爆破/轰炸鲁尔水坝记 The.Dam.Busters.1955.REMASTERED.WS.1080p.BluRay.REMUX.AVC.DTS-HD.MA.2.0-FGT 20.15GB-3.png 敌后大爆破/轰炸鲁尔水坝记 The.Dam.Busters.1955.REMASTERED.WS.1080p.BluRay.REMUX.AVC.DTS-HD.MA.2.0-FGT 20.15GB-4.png





回复

使用道具 举报

级别:荣升主角 Lv.5

注册时间
2018-5-27
最后登录
2019-6-24
听众
10
收听
0
主题
0
蓝光币
135 枚
贡献
0 点
发表于 2019-1-11 21:38:59 | 显示全部楼层
感谢分享!
回复

使用道具 举报

级别:专业龙套 Lv.4

注册时间
2019-1-17
最后登录
2019-6-24
听众
7
收听
0
主题
0
蓝光币
415 枚
贡献
0 点
QQ
发表于 2019-2-13 07:12:13 | 显示全部楼层

楼主太厉害了!楼主,电影应该很好看我觉得中国高清电影网真是个好地方!
回复

使用道具 举报

级别:群众演员 Lv.3

注册时间
2019-1-14
最后登录
2019-4-29
听众
6
收听
0
主题
0
蓝光币
52 枚
贡献
0 点
发表于 2019-2-13 08:54:07 | 显示全部楼层
楼主发贴辛苦了,谢谢楼主分享!我觉得中国高清电影网是注册对了!
回复

使用道具 举报

*滑动验证:
懒得打字嘛,点击右侧快捷回复 【右侧内容,后台自定义】
您需要登录后才可以回帖 登录 | 立即注册

本版积分规则

QQ|Archiver|手机版|小黑屋| 中国高清网 |网站地图

GMT+8, 2019-6-25 01:15 , Processed in 0.176131 second(s), 47 queries .

Powered by HDchina X3.4

Copyright 2017-2019©HDchina.All right reserved

返回顶部 联系我们