你所知道的4K资源这里全部都有 4K电影 | 4K视频 | 4K壁纸 | 4K MV 怎么播放4K视频 | 4K电视演示片

教你玩转4K私人与家庭影院存储 NAS组装 | 黑群辉 家庭/影院Nas论坛

4K家庭影院信号源与视频设备知识 4K蓝光高清播放机 - 那个品牌好? 4K投影机论坛 | 4K电视机论坛

手把手教你搭建属于自己的家庭影院 4K家庭影院案例 | 家庭影院音频 4K家庭影院论坛

查看: 163|回复: 1

[恐怖片] 地狱游乐园/血祭哈啰喂 Hell.Fest.2018.1080p.BluRay.REMUX.AVC.DTS-X.7.1-FGT 26.16GB

[复制链接]

 成长值: 1670

级别:资源管理组

注册时间
2017-10-20
最后登录
2019-6-25
听众
0
收听
0
主题
78745
蓝光币
28946 枚
贡献
3070 点
发表于 2018-12-31 23:15:46 | 显示全部楼层 |阅读模式

天堂游乐园/血祭哈啰喂 Hell.Fest.2018.1080p.BluRay.REMUX.AVC.DTS-X.7.1-FGT 26.16GB-1.jpg
◎译  名 天堂游乐园 / 血祭哈啰喂(港) / 吓天堂(台) / Hellfest
◎片  名 天堂游乐园 Hell Fest
◎年  代 2018
◎国  家 美国
◎类  别 可骇
◎语  言 英语
◎上映日期 2018-09-28(美国)
◎IMDb评分  5.6/10 from 4,346 users
◎IMDb链接  http://www.imdb.com/title/tt1999890/
◎豆瓣评分 5.6/10 from 163 users
◎豆瓣链接 https://movie.douban.com/subject/22266236/
◎片  长 89分钟
◎导  演 格雷戈里·普罗金
◎主  演 贝克斯·泰勒-克劳斯
      雷格·爱德沃兹
      艾米·福赛思
      托尼·托德
      考特尼·迪茨
      迈克尔·图尔克
      克里斯蒂安·詹姆斯
      马特·默丘里奥
      埃尔·格雷厄姆
      布鲁克·杰伊·泰勒
      本杰明·韦弗
      肖恩·麦克米伦

◎简  介 

  “进场欢笑多,出来成天堂”:万圣节时,某可骇主题游乐园来了一个连环杀手,用各类方式静静杀死旅客们,三个女孩能否存活?


  1. Video
  2. ID                                       : 1
  3. Format                                   : AVC
  4. Format/Info                              : Advanced Video Codec
  5. Format profile                           : [url=/cdn-cgi/l/email-protection][email protected][/url]
  6. Format settings                          : CABAC / 4 Ref Frames
  7. Format settings, CABAC                   : Yes
  8. Format settings, ReFrames                : 4 frames
  9. Codec ID                                 : V_MPEG4/ISO/AVC
  10. Duration                                 : 1 h 28 min
  11. Bit rate mode                            : Variable
  12. Bit rate                                 : 33.4 Mb/s
  13. Maximum bit rate                         : 37.0 Mb/s
  14. Width                                    : 1 920 pixels
  15. Height                                   : 1 080 pixels
  16. Display aspect ratio                     : 16:9
  17. Frame rate mode                          : Constant
  18. Frame rate                               : 23.976 (24000/1001) FPS
  19. Color space                              : YUV
  20. Chroma subsampling                       : 4:2:0
  21. Bit depth                                : 8 bits
  22. Scan type                                : Progressive
  23. Bits/(Pixel*Frame)                       : 0.673
  24. Stream size                              : 20.7 GiB (79%)
  25. Title                                    : Hell.Fest.2018.1080p.BluRay.REMUX.AVC.DTS-X.7.1-FGT
  26. Language                                 : English
  27. Default                                  : No
  28. Forced                                   : No

  29. Audio #1
  30. ID                                       : 2
  31. Format                                   : DTS XLL X
  32. Format/Info                              : Digital Theater Systems
  33. Commercial name                          : DTS-HD Master Audio
  34. Codec ID                                 : A_DTS
  35. Duration                                 : 1 h 28 min
  36. Bit rate mode                            : Variable
  37. Bit rate                                 : 6 330 kb/s
  38. Channel(s)                               : 8 channels
  39. Channel(s)_Original                      : Object Based
  40. Channel layout                           : Object Based
  41. Sampling rate                            : 48.0 kHz
  42. Frame rate                               : 93.750 FPS (512 SPF)
  43. Bit depth                                : 24 bits
  44. Stream size                              : 3.93 GiB (15%)
  45. Title                                    : Hell.Fest.2018.1080p.BluRay.REMUX.AVC.DTS-X.7.1-FGT
  46. Language                                 : English
  47. Default                                  : Yes
  48. Forced                                   : No

  49. Audio #2
  50. ID                                       : 3
  51. Format                                   : DTS
  52. Format/Info                              : Digital Theater Systems
  53. Codec ID                                 : A_DTS
  54. Duration                                 : 1 h 28 min
  55. Bit rate mode                            : Constant
  56. Bit rate                                 : 1 509 kb/s
  57. Channel(s)                               : 6 channels
  58. Channel layout                           : C L R Ls Rs LFE
  59. Sampling rate                            : 48.0 kHz
  60. Frame rate                               : 93.750 FPS (512 SPF)
  61. Bit depth                                : 24 bits
  62. Compression mode                         : Lossy
  63. Stream size                              : 959 MiB (4%)
  64. Title                                    : Hell.Fest.2018.1080p.BluRay.REMUX.AVC.DTS-X.7.1-FGT
  65. Language                                 : English
  66. Default                                  : No
  67. Forced                                   : No

  68. Audio #3
  69. ID                                       : 4
  70. Format                                   : AC-3
  71. Format/Info                              : Audio Coding 3
  72. Commercial name                          : Dolby Digital
  73. Codec ID                                 : A_AC3
  74. Duration                                 : 1 h 28 min
  75. Bit rate mode                            : Constant
  76. Bit rate                                 : 192 kb/s
  77. Channel(s)                               : 2 channels
  78. Channel layout                           : L R
  79. Sampling rate                            : 48.0 kHz
  80. Frame rate                               : 31.250 FPS (1536 SPF)
  81. Bit depth                                : 16 bits
  82. Compression mode                         : Lossy
  83. Stream size                              : 122 MiB (0%)
  84. Title                                    : Hell.Fest.2018.1080p.BluRay.REMUX.AVC.DTS-X.7.1-FGT
  85. Language                                 : English
  86. Service kind                             : Complete Main
  87. Default                                  : No
  88. Forced                                   : No

  89. Audio #4
  90. ID                                       : 5
  91. Format                                   : AC-3
  92. Format/Info                              : Audio Coding 3
  93. Commercial name                          : Dolby Digital
  94. Codec ID                                 : A_AC3
  95. Duration                                 : 1 h 28 min
  96. Bit rate mode                            : Constant
  97. Bit rate                                 : 448 kb/s
  98. Channel(s)                               : 6 channels
  99. Channel layout                           : L R C LFE Ls Rs
  100. Sampling rate                            : 48.0 kHz
  101. Frame rate                               : 31.250 FPS (1536 SPF)
  102. Bit depth                                : 16 bits
  103. Compression mode                         : Lossy
  104. Stream size                              : 285 MiB (1%)
  105. Title                                    : Hell.Fest.2018.1080p.BluRay.REMUX.AVC.DTS-X.7.1-FGT
  106. Language                                 : Spanish
  107. Service kind                             : Complete Main
  108. Default                                  : No
  109. Forced                                   : No

  110. Audio #5
  111. ID                                       : 6
  112. Format                                   : AC-3
  113. Format/Info                              : Audio Coding 3
  114. Commercial name                          : Dolby Digital
  115. Codec ID                                 : A_AC3
  116. Duration                                 : 1 h 28 min
  117. Bit rate mode                            : Constant
  118. Bit rate                                 : 192 kb/s
  119. Channel(s)                               : 2 channels
  120. Channel layout                           : L R
  121. Sampling rate                            : 48.0 kHz
  122. Frame rate                               : 31.250 FPS (1536 SPF)
  123. Bit depth                                : 16 bits
  124. Compression mode                         : Lossy
  125. Stream size                              : 122 MiB (0%)
  126. Title                                    : Hell.Fest.2018.1080p.BluRay.REMUX.AVC.DTS-X.7.1-FGT
  127. Language                                 : English
  128. Service kind                             : Complete Main
  129. Default                                  : No
  130. Forced                                   : No

  131. Text #1
  132. ID                                       : 7
  133. Format                                   : PGS
  134. Muxing mode                              : zlib
  135. Codec ID                                 : S_HDMV/PGS
  136. Codec ID/Info                            : Picture based subtitle format used on BDs/HD-DVDs
  137. Duration                                 : 1 h 23 min
  138. Bit rate                                 : 40.1 kb/s
  139. Count of elements                        : 2262
  140. Stream size                              : 23.9 MiB (0%)
  141. Title                                    : English-PGS
  142. Language                                 : English
  143. Default                                  : Yes
  144. Forced                                   : No

  145. Text #2
  146. ID                                       : 8
  147. Format                                   : PGS
  148. Muxing mode                              : zlib
  149. Codec ID                                 : S_HDMV/PGS
  150. Codec ID/Info                            : Picture based subtitle format used on BDs/HD-DVDs
  151. Duration                                 : 1 h 23 min
  152. Bit rate                                 : 51.8 kb/s
  153. Count of elements                        : 2946
  154. Stream size                              : 31.0 MiB (0%)
  155. Title                                    : English-SDH-PGS
  156. Language                                 : English
  157. Default                                  : No
  158. Forced                                   : No

  159. Text #3
  160. ID                                       : 9
  161. Format                                   : PGS
  162. Muxing mode                              : zlib
  163. Codec ID                                 : S_HDMV/PGS
  164. Codec ID/Info                            : Picture based subtitle format used on BDs/HD-DVDs
  165. Duration                                 : 1 h 23 min
  166. Bit rate                                 : 34.6 kb/s
  167. Count of elements                        : 2282
  168. Stream size                              : 20.7 MiB (0%)
  169. Title                                    : Spanish-PGS
  170. Language                                 : Spanish
  171. Default                                  : No
  172. Forced                                   : No

  173. Text #4
  174. ID                                       : 10
  175. Format                                   : PGS
  176. Muxing mode                              : zlib
  177. Codec ID                                 : S_HDMV/PGS
  178. Codec ID/Info                            : Picture based subtitle format used on BDs/HD-DVDs
  179. Duration                                 : 1 h 10 min
  180. Bit rate                                 : 540 b/s
  181. Count of elements                        : 24
  182. Stream size                              : 280 KiB (0%)
  183. Title                                    : Spanish-FORCED-PGS
  184. Language                                 : Spanish
  185. Default                                  : No
  186. Forced                                   : No

  187. Menu
  188. 00:00:00.000                             : en:Chapter 01
  189. 00:04:28.977                             : en:Chapter 02
  190. 00:12:09.979                             : en:Chapter 03
  191. 00:15:44.026                             : en:Chapter 04
  192. 00:22:44.029                             : en:Chapter 05
  193. 00:28:22.242                             : en:Chapter 06
  194. 00:35:17.365                             : en:Chapter 07
  195. 00:40:37.226                             : en:Chapter 08
  196. 00:43:37.781                             : en:Chapter 09
  197. 00:49:16.620                             : en:Chapter 10
  198. 00:53:22.407                             : en:Chapter 11
  199. 01:00:07.770                             : en:Chapter 12
  200. 01:06:43.582                             : en:Chapter 13
  201. 01:11:33.455                             : en:Chapter 14
  202. 01:16:33.589                             : en:Chapter 15
  203. 01:21:53.325                             : en:Chapter 16
复制代码

复制代码

天堂游乐园/血祭哈啰喂 Hell.Fest.2018.1080p.BluRay.REMUX.AVC.DTS-X.7.1-FGT 26.16GB-2.png 天堂游乐园/血祭哈啰喂 Hell.Fest.2018.1080p.BluRay.REMUX.AVC.DTS-X.7.1-FGT 26.16GB-3.png 天堂游乐园/血祭哈啰喂 Hell.Fest.2018.1080p.BluRay.REMUX.AVC.DTS-X.7.1-FGT 26.16GB-4.png





回复

使用道具 举报

级别:荣升主角 Lv.5

注册时间
2018-5-27
最后登录
2019-6-24
听众
10
收听
0
主题
0
蓝光币
135 枚
贡献
0 点
发表于 2019-1-11 21:19:21 | 显示全部楼层
感谢分享!
回复

使用道具 举报

*滑动验证:
懒得打字嘛,点击右侧快捷回复 【右侧内容,后台自定义】
您需要登录后才可以回帖 登录 | 立即注册

本版积分规则

QQ|Archiver|手机版|小黑屋| 中国高清网 |网站地图

GMT+8, 2019-6-25 01:15 , Processed in 0.189599 second(s), 46 queries .

Powered by HDchina X3.4

Copyright 2017-2019©HDchina.All right reserved

返回顶部 联系我们