你所知道的4K资源这里全部都有 4K电影 | 4K视频 | 4K壁纸 | 4K MV 怎么播放4K视频 | 4K电视演示片

教你玩转4K私人与家庭影院存储 NAS组装 | 黑群辉 家庭/影院Nas论坛

4K家庭影院信号源与视频设备知识 4K蓝光高清播放机 - 那个品牌好? 4K投影机论坛 | 4K电视机论坛

手把手教你搭建属于自己的家庭影院 4K家庭影院案例 | 家庭影院音频 4K家庭影院论坛

查看: 78|回复: 1

[剧情片] 90年代中期 Mid90s.2018.1080p.BluRay.REMUX.AVC.DTS-HD.MA.5.1-FGT 19.83GB

[复制链接]

 成长值: 730

级别:资源管理组

注册时间
2017-10-20
最后登录
2019-3-24
听众
0
收听
0
主题
76515
蓝光币
135278 枚
贡献
146324 点
发表于 2018-12-31 23:15:07 | 显示全部楼层 |阅读模式

90年月中期 Mid90s.2018.1080p.BluRay.REMUX.AVC.DTS-HD.MA.5.1-FGT 19.83GB-1.jpg
◎译  名 90年月中期 / Mid '90s
◎片  名 90年月中期 Mid90s
◎年  代 2018
◎国  家 美国
◎类  别 剧情 / 笑剧
◎语  言 英语
◎上映日期 2018-09-09(多伦多电影节) / 2018-10-19(美国)
◎IMDb评分  7.5/10 from 6,775 users
◎IMDb链接  http://www.imdb.com/title/tt5613484/
◎豆瓣评分 7.1/10 from 814 users
◎豆瓣链接 https://movie.douban.com/subject/26762269/
◎片  长 84分钟
◎导  演 乔纳·希尔
◎主  演 桑尼·苏尔季克
      凯瑟琳·沃特斯顿
      卢卡斯·赫奇斯
      纳-凯尔·史姑娘
      奥伦·普雷纳特
      吉奥·加利西亚
      赖德·麦克劳克林
      亚历克萨·德米
      哈莫尼·科林
      杰洛德·卡尔迈克
      贾克斯·马尔科姆

◎简  介 

  故事围绕上世纪90年月洛杉矶少年史蒂夫(苏基克饰)与他的滑板、冲浪朋友们的生活展开。沃特斯顿将饰演史蒂夫的单亲妈妈,赫奇斯饰演史蒂夫的哥哥。影片今朝正在拍摄中。

◎获奖情况 

  第90届美国国家批评协会奖 (2018)
  十佳自力电影

  第24届美国批评家挑选电影奖 (2019)
  最好青少年演员(提名) 桑尼·苏尔季克

  第34届美国自力精神奖 (2019)
  最好剪辑(提名)


  1. Video
  2. ID                                       : 1
  3. Format                                   : AVC
  4. Format/Info                              : Advanced Video Codec
  5. Format profile                           : [url=/cdn-cgi/l/email-protection][email protected][/url]
  6. Format settings                          : CABAC / 4 Ref Frames
  7. Format settings, CABAC                   : Yes
  8. Format settings, ReFrames                : 4 frames
  9. Codec ID                                 : V_MPEG4/ISO/AVC
  10. Duration                                 : 1 h 25 min
  11. Bit rate mode                            : Variable
  12. Bit rate                                 : 28.4 Mb/s
  13. Maximum bit rate                         : 37.0 Mb/s
  14. Width                                    : 1 920 pixels
  15. Height                                   : 1 080 pixels
  16. Display aspect ratio                     : 16:9
  17. Frame rate mode                          : Constant
  18. Frame rate                               : 23.976 (24000/1001) FPS
  19. Color space                              : YUV
  20. Chroma subsampling                       : 4:2:0
  21. Bit depth                                : 8 bits
  22. Scan type                                : Progressive
  23. Bits/(Pixel*Frame)                       : 0.571
  24. Stream size                              : 16.9 GiB (85%)
  25. Title                                    : Mid90s.2018.1080p.BluRay.REMUX.AVC.DTS-HD.MA.5.1-FGT
  26. Language                                 : English
  27. Default                                  : No
  28. Forced                                   : No

  29. Audio #1
  30. ID                                       : 2
  31. Format                                   : DTS XLL
  32. Format/Info                              : Digital Theater Systems
  33. Commercial name                          : DTS-HD Master Audio
  34. Codec ID                                 : A_DTS
  35. Duration                                 : 1 h 25 min
  36. Bit rate mode                            : Variable
  37. Bit rate                                 : 2 929 kb/s
  38. Channel(s)                               : 6 channels
  39. Channel layout                           : C L R Ls Rs LFE
  40. Sampling rate                            : 48.0 kHz
  41. Frame rate                               : 93.750 FPS (512 SPF)
  42. Bit depth                                : 24 bits
  43. Compression mode                         : Lossless
  44. Stream size                              : 1.75 GiB (9%)
  45. Title                                    : Mid90s.2018.1080p.BluRay.REMUX.AVC.DTS-HD.MA.5.1-FGT
  46. Language                                 : English
  47. Default                                  : Yes
  48. Forced                                   : No

  49. Audio #2
  50. ID                                       : 3
  51. Format                                   : DTS
  52. Format/Info                              : Digital Theater Systems
  53. Codec ID                                 : A_DTS
  54. Duration                                 : 1 h 25 min
  55. Bit rate mode                            : Constant
  56. Bit rate                                 : 1 509 kb/s
  57. Channel(s)                               : 6 channels
  58. Channel layout                           : C L R Ls Rs LFE
  59. Sampling rate                            : 48.0 kHz
  60. Frame rate                               : 93.750 FPS (512 SPF)
  61. Bit depth                                : 24 bits
  62. Compression mode                         : Lossy
  63. Stream size                              : 921 MiB (5%)
  64. Title                                    : Mid90s.2018.1080p.BluRay.REMUX.AVC.DTS-HD.MA.5.1-FGT
  65. Language                                 : English
  66. Default                                  : No
  67. Forced                                   : No

  68. Audio #3
  69. ID                                       : 4
  70. Format                                   : AC-3
  71. Format/Info                              : Audio Coding 3
  72. Commercial name                          : Dolby Digital
  73. Codec ID                                 : A_AC3
  74. Duration                                 : 1 h 25 min
  75. Bit rate mode                            : Constant
  76. Bit rate                                 : 192 kb/s
  77. Channel(s)                               : 2 channels
  78. Channel layout                           : L R
  79. Sampling rate                            : 48.0 kHz
  80. Frame rate                               : 31.250 FPS (1536 SPF)
  81. Bit depth                                : 16 bits
  82. Compression mode                         : Lossy
  83. Stream size                              : 117 MiB (1%)
  84. Title                                    : Mid90s.2018.1080p.BluRay.REMUX.AVC.DTS-HD.MA.5.1-FGT
  85. Language                                 : English
  86. Service kind                             : Complete Main
  87. Default                                  : No
  88. Forced                                   : No

  89. Audio #4
  90. ID                                       : 5
  91. Format                                   : AC-3
  92. Format/Info                              : Audio Coding 3
  93. Commercial name                          : Dolby Digital
  94. Codec ID                                 : A_AC3
  95. Duration                                 : 1 h 25 min
  96. Bit rate mode                            : Constant
  97. Bit rate                                 : 192 kb/s
  98. Channel(s)                               : 2 channels
  99. Channel layout                           : L R
  100. Sampling rate                            : 48.0 kHz
  101. Frame rate                               : 31.250 FPS (1536 SPF)
  102. Bit depth                                : 16 bits
  103. Compression mode                         : Lossy
  104. Stream size                              : 117 MiB (1%)
  105. Title                                    : Mid90s.2018.1080p.BluRay.REMUX.AVC.DTS-HD.MA.5.1-FGT
  106. Language                                 : English
  107. Service kind                             : Complete Main
  108. Default                                  : No
  109. Forced                                   : No

  110. Text #1
  111. ID                                       : 6
  112. Format                                   : PGS
  113. Muxing mode                              : zlib
  114. Codec ID                                 : S_HDMV/PGS
  115. Codec ID/Info                            : Picture based subtitle format used on BDs/HD-DVDs
  116. Duration                                 : 1 h 18 min
  117. Bit rate                                 : 38.5 kb/s
  118. Count of elements                        : 1991
  119. Stream size                              : 21.8 MiB (0%)
  120. Title                                    : English-PGS
  121. Language                                 : English
  122. Default                                  : Yes
  123. Forced                                   : No

  124. Text #2
  125. ID                                       : 7
  126. Format                                   : PGS
  127. Muxing mode                              : zlib
  128. Codec ID                                 : S_HDMV/PGS
  129. Codec ID/Info                            : Picture based subtitle format used on BDs/HD-DVDs
  130. Duration                                 : 1 h 17 min
  131. Bit rate                                 : 29.0 kb/s
  132. Count of elements                        : 1652
  133. Stream size                              : 16.1 MiB (0%)
  134. Title                                    : Spanish-PGS
  135. Language                                 : Spanish
  136. Default                                  : No
  137. Forced                                   : No

  138. Menu
  139. 00:00:00.000                             : en:Chapter 01
  140. 00:04:41.906                             : en:Chapter 02
  141. 00:11:28.312                             : en:Chapter 03
  142. 00:15:34.642                             : en:Chapter 04
  143. 00:20:57.047                             : en:Chapter 05
  144. 00:25:51.049                             : en:Chapter 06
  145. 00:32:09.302                             : en:Chapter 07
  146. 00:37:42.260                             : en:Chapter 08
  147. 00:43:32.359                             : en:Chapter 09
  148. 00:46:53.227                             : en:Chapter 10
  149. 00:53:34.252                             : en:Chapter 11
  150. 00:56:51.449                             : en:Chapter 12
  151. 01:03:43.945                             : en:Chapter 13
  152. 01:09:02.179                             : en:Chapter 14
  153. 01:14:04.440                             : en:Chapter 15
  154. 01:17:40.697                             : en:Chapter 16
复制代码

复制代码

90年月中期 Mid90s.2018.1080p.BluRay.REMUX.AVC.DTS-HD.MA.5.1-FGT 19.83GB-2.png 90年月中期 Mid90s.2018.1080p.BluRay.REMUX.AVC.DTS-HD.MA.5.1-FGT 19.83GB-3.png 90年月中期 Mid90s.2018.1080p.BluRay.REMUX.AVC.DTS-HD.MA.5.1-FGT 19.83GB-4.png





回复

使用道具 举报

级别:荣升主角 Lv.5

注册时间
2018-5-27
最后登录
2019-3-23
听众
4
收听
0
主题
0
蓝光币
17 枚
贡献
0 点
发表于 2019-1-11 21:18:49 | 显示全部楼层
感谢分享!
回复

使用道具 举报

懒得打字嘛,点击右侧快捷回复 【右侧内容,后台自定义】
您需要登录后才可以回帖 登录 | 立即注册

本版积分规则

QQ|Archiver|手机版|小黑屋|中国高清网 |网站地图

GMT+8, 2019-3-24 11:12 , Processed in 0.172324 second(s), 41 queries .

Powered by HDchina X3.4

Copyright 2017-2018©HDchina.All right reserved

返回顶部 联系我们