你所知道的4K资源这里全部都有 4K电影 | 4K视频 | 4K壁纸 | 4K MV 怎么播放4K视频 | 4K电视演示片

教你玩转4K私人与家庭影院存储 NAS组装 | 黑群辉 家庭/影院Nas论坛

4K家庭影院信号源与视频设备知识 4K蓝光高清播放机 - 那个品牌好? 4K投影机论坛 | 4K电视机论坛

手把手教你搭建属于自己的家庭影院 4K家庭影院案例 | 家庭影院音频 4K家庭影院论坛

查看: 88|回复: 1

[纪录片] 社交动物 Social.Animals.2018.1080p.BluRay.REMUX.AVC.DTS-HD.MA.5.1-FGT 20.31GB

[复制链接]

 成长值: 730

级别:资源管理组

注册时间
2017-10-20
最后登录
2019-3-24
听众
0
收听
0
主题
76515
蓝光币
135276 枚
贡献
146324 点
发表于 2018-12-31 23:14:29 | 显示全部楼层 |阅读模式

交际动物 Social.Animals.2018.1080p.BluRay.REMUX.AVC.DTS-HD.MA.5.1-FGT 20.31GB-1.jpg
◎译  名 交际动物
◎片  名 交际动物 Social Animals
◎年  代 2018
◎国  家 美国
◎类  别 记载片
◎语  言 英语
◎上映日期 2018-09-03(美国)
◎IMDb评分  6.3/10 from 57 users
◎IMDb链接  http://www.imdb.com/title/tt7969042/
◎豆瓣评分 今朝无人评价
◎豆瓣链接 https://movie.douban.com/subject/30416829/
◎片  长 无片长信息
◎导  演 Jonathan Ignatius Green
◎主  演 Kaylyn Slevin
      Emma Crockett
      Humza Deas

◎简  介 

  A daredevil photographer, an aspiring swimsuit model, and a midwest girl next door are all looking for the same things from their Instagram accounts--a little love, acceptance and, of course, fame--and they'll do just about anything to get it. With an observational eye Social Animals peeks into the digital and real worlds of today's image-focused teenager, where followers, likes and comments mark success and self worth.


  1. Video
  2. ID                                       : 1
  3. Format                                   : AVC
  4. Format/Info                              : Advanced Video Codec
  5. Format profile                           : [url=/cdn-cgi/l/email-protection][email protected][/url]
  6. Format settings                          : CABAC / 4 Ref Frames
  7. Format settings, CABAC                   : Yes
  8. Format settings, ReFrames                : 4 frames
  9. Codec ID                                 : V_MPEG4/ISO/AVC
  10. Duration                                 : 1 h 27 min
  11. Bit rate mode                            : Variable
  12. Bit rate                                 : 27.8 Mb/s
  13. Maximum bit rate                         : 38.0 Mb/s
  14. Width                                    : 1 920 pixels
  15. Height                                   : 1 080 pixels
  16. Display aspect ratio                     : 16:9
  17. Frame rate mode                          : Constant
  18. Frame rate                               : 23.976 (24000/1001) FPS
  19. Color space                              : YUV
  20. Chroma subsampling                       : 4:2:0
  21. Bit depth                                : 8 bits
  22. Scan type                                : Progressive
  23. Bits/(Pixel*Frame)                       : 0.560
  24. Stream size                              : 17.0 GiB (84%)
  25. Title                                    : Social.Animals.2018.1080p.BluRay.REMUX.AVC.DTS-HD.MA.5.1-FGT
  26. Language                                 : English
  27. Default                                  : No
  28. Forced                                   : No

  29. Audio #1
  30. ID                                       : 2
  31. Format                                   : DTS XLL
  32. Format/Info                              : Digital Theater Systems
  33. Commercial name                          : DTS-HD Master Audio
  34. Codec ID                                 : A_DTS
  35. Duration                                 : 1 h 27 min
  36. Bit rate mode                            : Variable
  37. Bit rate                                 : 3 816 kb/s
  38. Channel(s)                               : 6 channels
  39. Channel layout                           : C L R Ls Rs LFE
  40. Sampling rate                            : 48.0 kHz
  41. Frame rate                               : 93.750 FPS (512 SPF)
  42. Bit depth                                : 24 bits
  43. Compression mode                         : Lossless
  44. Stream size                              : 2.33 GiB (11%)
  45. Title                                    : Social.Animals.2018.1080p.BluRay.REMUX.AVC.DTS-HD.MA.5.1-FGT
  46. Language                                 : English
  47. Default                                  : Yes
  48. Forced                                   : No

  49. Audio #2
  50. ID                                       : 3
  51. Format                                   : DTS
  52. Format/Info                              : Digital Theater Systems
  53. Codec ID                                 : A_DTS
  54. Duration                                 : 1 h 27 min
  55. Bit rate mode                            : Constant
  56. Bit rate                                 : 1 509 kb/s
  57. Channel(s)                               : 6 channels
  58. Channel layout                           : C L R Ls Rs LFE
  59. Sampling rate                            : 48.0 kHz
  60. Frame rate                               : 93.750 FPS (512 SPF)
  61. Bit depth                                : 24 bits
  62. Compression mode                         : Lossy
  63. Stream size                              : 944 MiB (5%)
  64. Title                                    : Social.Animals.2018.1080p.BluRay.REMUX.AVC.DTS-HD.MA.5.1-FGT
  65. Language                                 : English
  66. Default                                  : No
  67. Forced                                   : No

  68. Text
  69. ID                                       : 4
  70. Format                                   : PGS
  71. Muxing mode                              : zlib
  72. Codec ID                                 : S_HDMV/PGS
  73. Codec ID/Info                            : Picture based subtitle format used on BDs/HD-DVDs
  74. Duration                                 : 1 h 25 min
  75. Bit rate                                 : 128 kb/s
  76. Count of elements                        : 3016
  77. Stream size                              : 78.7 MiB (0%)
  78. Title                                    : English-PGS
  79. Language                                 : English
  80. Default                                  : Yes
  81. Forced                                   : No

  82. Menu
  83. 00:00:00.000                             : en:Chapter 01
  84. 00:09:39.870                             : en:Chapter 02
  85. 00:20:50.582                             : en:Chapter 03
  86. 00:29:46.659                             : en:Chapter 04
  87. 00:39:33.913                             : en:Chapter 05
  88. 00:49:44.564                             : en:Chapter 06
  89. 01:00:49.604                             : en:Chapter 07
  90. 01:09:05.850                             : en:Chapter 08
  91. 01:19:46.114                             : en:Chapter 09
  92. 01:27:28.826                             : en:Chapter 10
复制代码

复制代码

交际动物 Social.Animals.2018.1080p.BluRay.REMUX.AVC.DTS-HD.MA.5.1-FGT 20.31GB-2.png 交际动物 Social.Animals.2018.1080p.BluRay.REMUX.AVC.DTS-HD.MA.5.1-FGT 20.31GB-3.png 交际动物 Social.Animals.2018.1080p.BluRay.REMUX.AVC.DTS-HD.MA.5.1-FGT 20.31GB-4.png




回复

使用道具 举报

级别:荣升主角 Lv.5

注册时间
2018-5-27
最后登录
2019-3-23
听众
4
收听
0
主题
0
蓝光币
17 枚
贡献
0 点
发表于 2019-1-11 21:33:57 | 显示全部楼层
感谢分享!
回复

使用道具 举报

懒得打字嘛,点击右侧快捷回复 【右侧内容,后台自定义】
您需要登录后才可以回帖 登录 | 立即注册

本版积分规则

QQ|Archiver|手机版|小黑屋|中国高清网 |网站地图

GMT+8, 2019-3-24 10:37 , Processed in 0.152849 second(s), 41 queries .

Powered by HDchina X3.4

Copyright 2017-2018©HDchina.All right reserved

返回顶部 联系我们