你所知道的4K资源这里全部都有 4K电影 | 4K视频 | 4K壁纸 | 4K MV 怎么播放4K视频 | 4K电视演示片

教你玩转4K私人与家庭影院存储 NAS组装 | 黑群辉 家庭/影院Nas论坛

4K家庭影院信号源与视频设备知识 4K蓝光高清播放机 - 那个品牌好? 4K投影机论坛 | 4K电视机论坛

手把手教你搭建属于自己的家庭影院 4K家庭影院案例 | 家庭影院音频 4K家庭影院论坛

查看: 55|回复: 1

[科幻片] 机器猛犬/机动战犬 A.X.L.2018.1080p.BluRay.REMUX.AVC.DTS-HD.MA.5.1-FGT 30.18GB

[复制链接]

 成长值: 70

级别:资源管理组

UID
1
注册时间
2017-10-20
最后登录
2019-1-17
听众
0
收听
0
主题
73857
蓝光币
114350 枚
贡献
143666 点
发表于 2018-12-29 14:03:16 | 显示全部楼层 |阅读模式

机械猛犬/灵活战犬 A.X.L.2018.1080p.BluRay.REMUX.AVC.DTS-HD.MA.5.1-FGT 30.18GB-1.jpg
◎译  名 机械猛犬 / 灵活战犬(港) / 机械战犬(台) / AXL / Miles
◎片  名 机械猛犬 A.X.L.
◎年  代 2018
◎国  家 美国
◎类  别 科幻 / 冒险
◎语  言 英语
◎上映日期 2018-08-24(美国)
◎IMDb评分  5.1/10 from 3,541 users
◎IMDb链接  http://www.imdb.com/title/tt5709188/
◎豆瓣评分 4.5/10 from 878 users
◎豆瓣链接 https://movie.douban.com/subject/26919051/
◎片  长 100分钟
◎导  演 奥利弗·达利
◎主  演 托马斯·简
      贝姬·戈麦斯
      多米尼克·瑞恩斯
      特德·麦金利
      亚历克斯·诺伊施泰特
      斯黛茜·阿伦·拉布
      埃里克·艾特巴里
      萨姆·厄普顿
      玛德琳·贝塔尼
      乔纳森·坎普
      多里安·金

◎简  介 

  一个命运欠安的自行车手迈尔斯某天偶然发现一只先辈、机械、军用的机械狗A.X.L.,其心脏是真狗的心脏,其他部位装备新一代野生智能。迈尔斯和AXL在平常交往中逐步促进豪情,而无赖军事科学家要掉臂一切将AXL捉回,迈尔斯与他的梦中情人、神机妙算莎拉组队,为庇护他的新朋友,踏上了一段史诗般的冒险旅程。


  1. Video
  2. ID                                       : 1
  3. Format                                   : AVC
  4. Format/Info                              : Advanced Video Codec
  5. Format profile                           : [url=/cdn-cgi/l/email-protection][email protected][/url]
  6. Format settings                          : CABAC / 4 Ref Frames
  7. Format settings, CABAC                   : Yes
  8. Format settings, ReFrames                : 4 frames
  9. Format settings, GOP                     : M=3, N=12
  10. Codec ID                                 : V_MPEG4/ISO/AVC
  11. Duration                                 : 1 h 38 min
  12. Bit rate mode                            : Variable
  13. Bit rate                                 : 32.6 Mb/s
  14. Maximum bit rate                         : 35.0 Mb/s
  15. Width                                    : 1 920 pixels
  16. Height                                   : 1 080 pixels
  17. Display aspect ratio                     : 16:9
  18. Frame rate mode                          : Constant
  19. Frame rate                               : 23.976 (24000/1001) FPS
  20. Color space                              : YUV
  21. Chroma subsampling                       : 4:2:0
  22. Bit depth                                : 8 bits
  23. Scan type                                : Progressive
  24. Bits/(Pixel*Frame)                       : 0.656
  25. Stream size                              : 22.5 GiB (74%)
  26. Title                                    : A.X.L.2018.1080p.BluRay.REMUX.AVC.DTS-HD.MA.5.1-FGT
  27. Language                                 : English
  28. Default                                  : No
  29. Forced                                   : No

  30. Audio #1
  31. ID                                       : 2
  32. Format                                   : DTS XLL
  33. Format/Info                              : Digital Theater Systems
  34. Commercial name                          : DTS-HD Master Audio
  35. Codec ID                                 : A_DTS
  36. Duration                                 : 1 h 38 min
  37. Bit rate mode                            : Variable
  38. Bit rate                                 : 4 087 kb/s
  39. Channel(s)                               : 6 channels
  40. Channel layout                           : C L R Ls Rs LFE
  41. Sampling rate                            : 48.0 kHz
  42. Frame rate                               : 93.750 FPS (512 SPF)
  43. Bit depth                                : 24 bits
  44. Compression mode                         : Lossless
  45. Stream size                              : 2.82 GiB (9%)
  46. Title                                    : A.X.L.2018.1080p.BluRay.REMUX.AVC.DTS-HD.MA.5.1-FGT
  47. Language                                 : English
  48. Default                                  : Yes
  49. Forced                                   : No

  50. Audio #2
  51. ID                                       : 3
  52. Format                                   : DTS
  53. Format/Info                              : Digital Theater Systems
  54. Codec ID                                 : A_DTS
  55. Duration                                 : 1 h 38 min
  56. Bit rate mode                            : Constant
  57. Bit rate                                 : 1 509 kb/s
  58. Channel(s)                               : 6 channels
  59. Channel layout                           : C L R Ls Rs LFE
  60. Sampling rate                            : 48.0 kHz
  61. Frame rate                               : 93.750 FPS (512 SPF)
  62. Bit depth                                : 24 bits
  63. Compression mode                         : Lossy
  64. Stream size                              : 1.04 GiB (3%)
  65. Title                                    : A.X.L.2018.1080p.BluRay.REMUX.AVC.DTS-HD.MA.5.1-FGT
  66. Language                                 : English
  67. Default                                  : No
  68. Forced                                   : No

  69. Audio #3
  70. ID                                       : 4
  71. Format                                   : DTS XLL
  72. Format/Info                              : Digital Theater Systems
  73. Commercial name                          : DTS-HD Master Audio
  74. Codec ID                                 : A_DTS
  75. Duration                                 : 1 h 38 min
  76. Bit rate mode                            : Variable
  77. Bit rate                                 : 4 046 kb/s
  78. Channel(s)                               : 6 channels
  79. Channel layout                           : C L R Ls Rs LFE
  80. Sampling rate                            : 48.0 kHz
  81. Frame rate                               : 93.750 FPS (512 SPF)
  82. Bit depth                                : 24 bits
  83. Compression mode                         : Lossless
  84. Stream size                              : 2.79 GiB (9%)
  85. Title                                    : A.X.L.2018.1080p.BluRay.REMUX.AVC.DTS-HD.MA.5.1-FGT
  86. Language                                 : Spanish
  87. Default                                  : No
  88. Forced                                   : No

  89. Audio #4
  90. ID                                       : 5
  91. Format                                   : DTS
  92. Format/Info                              : Digital Theater Systems
  93. Codec ID                                 : A_DTS
  94. Duration                                 : 1 h 38 min
  95. Bit rate mode                            : Constant
  96. Bit rate                                 : 1 509 kb/s
  97. Channel(s)                               : 6 channels
  98. Channel layout                           : C L R Ls Rs LFE
  99. Sampling rate                            : 48.0 kHz
  100. Frame rate                               : 93.750 FPS (512 SPF)
  101. Bit depth                                : 24 bits
  102. Compression mode                         : Lossy
  103. Stream size                              : 1.04 GiB (3%)
  104. Title                                    : A.X.L.2018.1080p.BluRay.REMUX.AVC.DTS-HD.MA.5.1-FGT
  105. Language                                 : Spanish
  106. Default                                  : No
  107. Forced                                   : No

  108. Text #1
  109. ID                                       : 6
  110. Format                                   : PGS
  111. Muxing mode                              : zlib
  112. Codec ID                                 : S_HDMV/PGS
  113. Codec ID/Info                            : Picture based subtitle format used on BDs/HD-DVDs
  114. Duration                                 : 1 h 28 min
  115. Bit rate                                 : 38.4 kb/s
  116. Count of elements                        : 2420
  117. Stream size                              : 24.3 MiB (0%)
  118. Title                                    : English_PGS
  119. Language                                 : English
  120. Default                                  : Yes
  121. Forced                                   : No

  122. Text #2
  123. ID                                       : 7
  124. Format                                   : PGS
  125. Muxing mode                              : zlib
  126. Codec ID                                 : S_HDMV/PGS
  127. Codec ID/Info                            : Picture based subtitle format used on BDs/HD-DVDs
  128. Duration                                 : 1 h 28 min
  129. Bit rate                                 : 34.5 kb/s
  130. Count of elements                        : 2116
  131. Stream size                              : 21.8 MiB (0%)
  132. Title                                    : Spanish-PGS
  133. Language                                 : Spanish
  134. Default                                  : No
  135. Forced                                   : No

  136. Menu
  137. 00:00:00.000                             : en:Chapter 01
  138. 00:05:03.886                             : en:Chapter 02
  139. 00:10:06.063                             : en:Chapter 03
  140. 00:16:35.494                             : en:Chapter 04
  141. 00:19:37.926                             : en:Chapter 05
  142. 00:23:11.848                             : en:Chapter 06
  143. 00:30:32.288                             : en:Chapter 07
  144. 00:36:25.266                             : en:Chapter 08
  145. 00:44:47.643                             : en:Chapter 09
  146. 00:49:35.263                             : en:Chapter 10
  147. 00:56:14.788                             : en:Chapter 11
  148. 01:01:15.421                             : en:Chapter 12
  149. 01:09:45.139                             : en:Chapter 13
  150. 01:14:41.768                             : en:Chapter 14
  151. 01:18:30.414                             : en:Chapter 15
  152. 01:25:27.080                             : en:Chapter 16
复制代码

复制代码

机械猛犬/灵活战犬 A.X.L.2018.1080p.BluRay.REMUX.AVC.DTS-HD.MA.5.1-FGT 30.18GB-2.png 机械猛犬/灵活战犬 A.X.L.2018.1080p.BluRay.REMUX.AVC.DTS-HD.MA.5.1-FGT 30.18GB-3.png 机械猛犬/灵活战犬 A.X.L.2018.1080p.BluRay.REMUX.AVC.DTS-HD.MA.5.1-FGT 30.18GB-4.png




回复

使用道具 举报

级别:专业龙套 Lv.4

UID
4064
注册时间
2018-5-27
最后登录
2019-1-13
听众
3
收听
0
主题
0
蓝光币
1 枚
贡献
0 点
发表于 6 天前 | 显示全部楼层
感谢分享!
回复

使用道具 举报

懒得打字嘛,点击右侧快捷回复 【右侧内容,后台自定义】
您需要登录后才可以回帖 登录 | 立即注册

本版积分规则

QQ|Archiver|手机版|小黑屋|中国高清网 |网站地图

GMT+8, 2019-1-17 13:36 , Processed in 0.142161 second(s), 41 queries .

Powered by HDchina X3.4

Copyright 2017-2018©HDchina.All right reserved

返回顶部 联系我们