你所知道的4K资源这里全部都有 4K电影 | 4K视频 | 4K壁纸 | 4K MV 怎么播放4K视频 | 4K电视演示片

教你玩转4K私人与家庭影院存储 NAS组装 | 黑群辉 家庭/影院Nas论坛

4K家庭影院信号源与视频设备知识 4K蓝光高清播放机 - 那个品牌好? 4K投影机论坛 | 4K电视机论坛

手把手教你搭建属于自己的家庭影院 4K家庭影院案例 | 家庭影院音频 4K家庭影院论坛

查看: 85|回复: 1

[剧情片] 沙滩上的女人/海滩上的女人 Female.on.the.Beach.1955.1080p.BluRay.REMUX.AVC.DTS-HD.MA.2.0-FGT 19.69GB

[复制链接]

 成长值: 730

级别:资源管理组

注册时间
2017-10-20
最后登录
2019-3-24
听众
0
收听
0
主题
76515
蓝光币
135276 枚
贡献
146324 点
发表于 2018-12-29 14:02:55 | 显示全部楼层 |阅读模式

沙滩上的女人/海滩上的女人 Female.on.the.Beach.1955.1080p.BluRay.REMUX.AVC.DTS-HD.MA.2.0-FGT 19.69GB-1.jpg
◎译  名 沙滩上的女人 / 海滩上的女人
◎片  名 沙滩上的女人 Female on the Beach
◎年  代 1955
◎国  家 美国
◎类  别 剧情 / 恋爱 / 悬疑 / 惊悚 / 犯罪
◎语  言 英语
◎上映日期 1955-08-20
◎IMDb评分  6.2/10 from 843 users
◎IMDb链接  http://www.imdb.com/title/tt0048064/
◎豆瓣评分 今朝无人评价
◎豆瓣链接 https://movie.douban.com/subject/3286365/
◎片  长 97 分钟
◎导  演 Joseph Pevney
◎主  演 joan crawford

◎简  介 

  海边别墅的女佃农埃勒维兹掉下绝壁灭亡,邻人德拉蒙向警局宣称他们在海边发生了一次争持,他转成分开,后来才发现酒醉的埃勒维兹出错落海。房东——孀妇琳恩搬进了已故丈夫留下的这栋海滨别墅里。她发现德拉蒙会经常过来干扰她的生活,虽然自己很生气却又被他迷倒。在琳恩决议与德拉蒙成婚并前往度蜜月之时,却发现他能够与埃勒维兹的死有关,甚至还能够会杀戮自己……


  1. Video
  2. ID                                       : 1
  3. Format                                   : AVC
  4. Format/Info                              : Advanced Video Codec
  5. Format profile                           : [url=/cdn-cgi/l/email-protection][email protected][/url]
  6. Format settings                          : CABAC / 4 Ref Frames
  7. Format settings, CABAC                   : Yes
  8. Format settings, ReFrames                : 4 frames
  9. Codec ID                                 : V_MPEG4/ISO/AVC
  10. Duration                                 : 1 h 36 min
  11. Bit rate mode                            : Variable
  12. Bit rate                                 : 25.6 Mb/s
  13. Maximum bit rate                         : 38.0 Mb/s
  14. Width                                    : 1 920 pixels
  15. Height                                   : 1 080 pixels
  16. Display aspect ratio                     : 16:9
  17. Frame rate mode                          : Constant
  18. Frame rate                               : 23.976 (24000/1001) FPS
  19. Color space                              : YUV
  20. Chroma subsampling                       : 4:2:0
  21. Bit depth                                : 8 bits
  22. Scan type                                : Progressive
  23. Bits/(Pixel*Frame)                       : 0.515
  24. Stream size                              : 17.3 GiB (88%)
  25. Title                                    : Female.on.the.Beach.1955.1080p.BluRay.REMUX.AVC.DTS-HD.MA.2.0-FGT
  26. Language                                 : English
  27. Default                                  : No
  28. Forced                                   : No

  29. Audio #1
  30. ID                                       : 2
  31. Format                                   : DTS XLL
  32. Format/Info                              : Digital Theater Systems
  33. Commercial name                          : DTS-HD Master Audio
  34. Codec ID                                 : A_DTS
  35. Duration                                 : 1 h 36 min
  36. Bit rate mode                            : Variable
  37. Bit rate                                 : 1 557 kb/s
  38. Channel(s)                               : 2 channels
  39. Channel layout                           : L R
  40. Sampling rate                            : 48.0 kHz
  41. Frame rate                               : 93.750 FPS (512 SPF)
  42. Bit depth                                : 16 bits
  43. Compression mode                         : Lossless
  44. Stream size                              : 1.05 GiB (5%)
  45. Title                                    : Female.on.the.Beach.1955.1080p.BluRay.REMUX.AVC.DTS-HD.MA.2.0-FGT
  46. Language                                 : English
  47. Default                                  : Yes
  48. Forced                                   : No

  49. Audio #2
  50. ID                                       : 3
  51. Format                                   : DTS
  52. Format/Info                              : Digital Theater Systems
  53. Codec ID                                 : A_DTS
  54. Duration                                 : 1 h 36 min
  55. Bit rate mode                            : Constant
  56. Bit rate                                 : 1 509 kb/s
  57. Channel(s)                               : 2 channels
  58. Channel layout                           : L R
  59. Sampling rate                            : 48.0 kHz
  60. Frame rate                               : 93.750 FPS (512 SPF)
  61. Bit depth                                : 16 bits
  62. Compression mode                         : Lossy
  63. Stream size                              : 1.02 GiB (5%)
  64. Title                                    : Female.on.the.Beach.1955.1080p.BluRay.REMUX.AVC.DTS-HD.MA.2.0-FGT
  65. Language                                 : English
  66. Default                                  : No
  67. Forced                                   : No

  68. Audio #3
  69. ID                                       : 4
  70. Format                                   : AC-3
  71. Format/Info                              : Audio Coding 3
  72. Commercial name                          : Dolby Digital
  73. Codec ID                                 : A_AC3
  74. Duration                                 : 1 h 36 min
  75. Bit rate mode                            : Constant
  76. Bit rate                                 : 192 kb/s
  77. Channel(s)                               : 2 channels
  78. Channel layout                           : L R
  79. Sampling rate                            : 48.0 kHz
  80. Frame rate                               : 31.250 FPS (1536 SPF)
  81. Bit depth                                : 16 bits
  82. Compression mode                         : Lossy
  83. Stream size                              : 133 MiB (1%)
  84. Title                                    : Female.on.the.Beach.1955.1080p.BluRay.REMUX.AVC.DTS-HD.MA.2.0-FGT
  85. Language                                 : English
  86. Service kind                             : Complete Main
  87. Default                                  : No
  88. Forced                                   : No

  89. Audio #4
  90. ID                                       : 5
  91. Format                                   : AC-3
  92. Format/Info                              : Audio Coding 3
  93. Commercial name                          : Dolby Digital
  94. Codec ID                                 : A_AC3
  95. Duration                                 : 1 h 36 min
  96. Bit rate mode                            : Constant
  97. Bit rate                                 : 192 kb/s
  98. Channel(s)                               : 2 channels
  99. Channel layout                           : L R
  100. Sampling rate                            : 48.0 kHz
  101. Frame rate                               : 31.250 FPS (1536 SPF)
  102. Bit depth                                : 16 bits
  103. Compression mode                         : Lossy
  104. Stream size                              : 133 MiB (1%)
  105. Title                                    : Female.on.the.Beach.1955.1080p.BluRay.REMUX.AVC.DTS-HD.MA.2.0-FGT
  106. Language                                 : English
  107. Service kind                             : Complete Main
  108. Default                                  : No
  109. Forced                                   : No

  110. Text
  111. ID                                       : 6
  112. Format                                   : PGS
  113. Muxing mode                              : zlib
  114. Codec ID                                 : S_HDMV/PGS
  115. Codec ID/Info                            : Picture based subtitle format used on BDs/HD-DVDs
  116. Duration                                 : 1 h 34 min
  117. Bit rate                                 : 30.6 kb/s
  118. Count of elements                        : 1751
  119. Stream size                              : 20.7 MiB (0%)
  120. Title                                    : English-PGS
  121. Language                                 : English
  122. Default                                  : Yes
  123. Forced                                   : No

  124. Menu
  125. 00:00:00.000                             : en:Chapter 00
  126. 00:11:35.152                             : en:Chapter 01
  127. 00:24:47.777                             : en:Chapter 02
  128. 00:37:54.230                             : en:Chapter 03
  129. 00:52:57.674                             : en:Chapter 04
  130. 01:07:41.057                             : en:Chapter 05
  131. 01:19:12.873                             : en:Chapter 06
  132. 01:29:29.947                             : en:Chapter 07
  133. 01:36:50.846                             : en:Chapter 08
复制代码

复制代码

沙滩上的女人/海滩上的女人 Female.on.the.Beach.1955.1080p.BluRay.REMUX.AVC.DTS-HD.MA.2.0-FGT 19.69GB-2.png 沙滩上的女人/海滩上的女人 Female.on.the.Beach.1955.1080p.BluRay.REMUX.AVC.DTS-HD.MA.2.0-FGT 19.69GB-3.png 沙滩上的女人/海滩上的女人 Female.on.the.Beach.1955.1080p.BluRay.REMUX.AVC.DTS-HD.MA.2.0-FGT 19.69GB-4.png





回复

使用道具 举报

级别:普通观众 Lv.2

注册时间
2018-12-29
最后登录
2018-12-30
听众
0
收听
0
主题
0
蓝光币
23 枚
贡献
0 点
发表于 2018-12-30 12:17:10 | 显示全部楼层
感谢楼主的无私分享!
回复

使用道具 举报

懒得打字嘛,点击右侧快捷回复 【右侧内容,后台自定义】
您需要登录后才可以回帖 登录 | 立即注册

本版积分规则

QQ|Archiver|手机版|小黑屋|中国高清网 |网站地图

GMT+8, 2019-3-24 10:49 , Processed in 0.163798 second(s), 41 queries .

Powered by HDchina X3.4

Copyright 2017-2018©HDchina.All right reserved

返回顶部 联系我们