你所知道的4K资源这里全部都有 4K电影 | 4K视频 | 4K壁纸 | 4K MV 怎么播放4K视频 | 4K电视演示片

教你玩转4K私人与家庭影院存储 NAS组装 | 黑群辉 家庭/影院Nas论坛

4K家庭影院信号源与视频设备知识 4K蓝光高清播放机 - 那个品牌好? 4K投影机论坛 | 4K电视机论坛

手把手教你搭建属于自己的家庭影院 4K家庭影院案例 | 家庭影院音频 4K家庭影院论坛

查看: 22|回复: 1

[喜剧片] 命运先生 Mr.Destiny.1990.1080p.BluRay.REMUX.AVC.DTS-HD.MA.2.0-FGT 17.50GB

[复制链接]

 成长值: 70

级别:资源管理组

UID
1
注册时间
2017-10-20
最后登录
2019-1-17
听众
0
收听
0
主题
73857
蓝光币
114342 枚
贡献
143666 点
发表于 2018-12-29 14:01:57 | 显示全部楼层 |阅读模式

命运师长 Mr.Destiny.1990.1080p.BluRay.REMUX.AVC.DTS-HD.MA.2.0-FGT 17.50GB-1.jpg
◎译  名 命运师长
◎片  名 命运师长 Mr. Destiny
◎年  代 1990
◎国  家 美国
◎类  别 笑剧 / 奇异
◎语  言 英语
◎上映日期 1990-10-12
◎IMDb评分  6.4/10 from 10,648 users
◎IMDb链接  http://www.imdb.com/title/tt0100201/
◎豆瓣评分 7.4/10 from 1389 users
◎豆瓣链接 https://movie.douban.com/subject/1304508/
◎片  长 110 分钟
◎导  演 詹姆斯·奥尔
◎主  演 琳达·汉密尔顿
      迈克尔·凯恩
      蕾妮·罗素
      詹姆斯·贝鲁什
      哈特·巴克纳
      乔恩·拉威茨

◎简  介 

  拉里(詹姆斯·贝鲁什 James Belushi 饰)人到中年却一事无成,既没有值得炫耀的工作,亦没有相伴毕生的爱人。天天,拉里就这样在浑浑噩噩当中度过,看不到一丁点未来的希望。拉里将形成自己糟糕现状的缘由归结到了少年时代的一场棒球赛上,拉里以为,假如他可以在角逐中得胜,自己的人生将完全会是别的一番气象。
  某日,拉里碰见了一个奥秘的汉子(迈克尔·凯恩 Michael Caine 饰),在奥秘人的帮助之下,拉里填补了在球赛中的遗憾,而且是以改变了未来,过上了求之不得的生活。但是,随着时候的推移,冲动之情渐渐淡去的拉里发现,他“完善”的新生活中照旧题目多多。


  1. Video
  2. ID                                       : 1
  3. Format                                   : AVC
  4. Format/Info                              : Advanced Video Codec
  5. Format profile                           : [url=/cdn-cgi/l/email-protection][email protected][/url]
  6. Format settings                          : CABAC / 4 Ref Frames
  7. Format settings, CABAC                   : Yes
  8. Format settings, ReFrames                : 4 frames
  9. Codec ID                                 : V_MPEG4/ISO/AVC
  10. Duration                                 : 1 h 50 min
  11. Bit rate mode                            : Variable
  12. Bit rate                                 : 19.4 Mb/s
  13. Maximum bit rate                         : 38.0 Mb/s
  14. Width                                    : 1 920 pixels
  15. Height                                   : 1 080 pixels
  16. Display aspect ratio                     : 16:9
  17. Frame rate mode                          : Constant
  18. Frame rate                               : 23.976 (24000/1001) FPS
  19. Color space                              : YUV
  20. Chroma subsampling                       : 4:2:0
  21. Bit depth                                : 8 bits
  22. Scan type                                : Progressive
  23. Bits/(Pixel*Frame)                       : 0.390
  24. Stream size                              : 15.0 GiB (86%)
  25. Title                                    : Mr.Destiny.1990.1080p.BluRay.REMUX.AVC.DTS-HD.MA.2.0-FGT
  26. Language                                 : English
  27. Default                                  : No
  28. Forced                                   : No

  29. Audio #1
  30. ID                                       : 2
  31. Format                                   : DTS XLL
  32. Format/Info                              : Digital Theater Systems
  33. Commercial name                          : DTS-HD Master Audio
  34. Codec ID                                 : A_DTS
  35. Duration                                 : 1 h 50 min
  36. Bit rate mode                            : Variable
  37. Bit rate                                 : 1 560 kb/s
  38. Channel(s)                               : 2 channels
  39. Channel layout                           : L R
  40. Sampling rate                            : 48.0 kHz
  41. Frame rate                               : 93.750 FPS (512 SPF)
  42. Bit depth                                : 16 bits
  43. Compression mode                         : Lossless
  44. Stream size                              : 1.20 GiB (7%)
  45. Title                                    : Mr.Destiny.1990.1080p.BluRay.REMUX.AVC.DTS-HD.MA.2.0-FGT
  46. Language                                 : English
  47. Default                                  : Yes
  48. Forced                                   : No

  49. Audio #2
  50. ID                                       : 3
  51. Format                                   : DTS
  52. Format/Info                              : Digital Theater Systems
  53. Codec ID                                 : A_DTS
  54. Duration                                 : 1 h 50 min
  55. Bit rate mode                            : Constant
  56. Bit rate                                 : 1 509 kb/s
  57. Channel(s)                               : 2 channels
  58. Channel layout                           : L R
  59. Sampling rate                            : 48.0 kHz
  60. Frame rate                               : 93.750 FPS (512 SPF)
  61. Bit depth                                : 16 bits
  62. Compression mode                         : Lossy
  63. Stream size                              : 1.16 GiB (7%)
  64. Title                                    : Mr.Destiny.1990.1080p.BluRay.REMUX.AVC.DTS-HD.MA.2.0-FGT
  65. Language                                 : English
  66. Default                                  : No
  67. Forced                                   : No

  68. Audio #3
  69. ID                                       : 4
  70. Format                                   : AC-3
  71. Format/Info                              : Audio Coding 3
  72. Commercial name                          : Dolby Digital
  73. Codec ID                                 : A_AC3
  74. Duration                                 : 1 h 50 min
  75. Bit rate mode                            : Constant
  76. Bit rate                                 : 192 kb/s
  77. Channel(s)                               : 2 channels
  78. Channel layout                           : L R
  79. Sampling rate                            : 48.0 kHz
  80. Frame rate                               : 31.250 FPS (1536 SPF)
  81. Bit depth                                : 16 bits
  82. Compression mode                         : Lossy
  83. Stream size                              : 152 MiB (1%)
  84. Title                                    : Mr.Destiny.1990.1080p.BluRay.REMUX.AVC.DTS-HD.MA.2.0-FGT
  85. Language                                 : English
  86. Service kind                             : Complete Main
  87. Default                                  : No
  88. Forced                                   : No

  89. Menu
  90. 00:00:00.000                             : en:Chapter 00
  91. 00:09:07.463                             : en:Chapter 01
  92. 00:21:02.469                             : en:Chapter 02
  93. 00:36:32.315                             : en:Chapter 03
  94. 00:55:37.292                             : en:Chapter 04
  95. 01:10:58.170                             : en:Chapter 05
  96. 01:25:37.757                             : en:Chapter 06
  97. 01:38:42.249                             : en:Chapter 07
复制代码

复制代码

命运师长 Mr.Destiny.1990.1080p.BluRay.REMUX.AVC.DTS-HD.MA.2.0-FGT 17.50GB-2.png 命运师长 Mr.Destiny.1990.1080p.BluRay.REMUX.AVC.DTS-HD.MA.2.0-FGT 17.50GB-3.png 命运师长 Mr.Destiny.1990.1080p.BluRay.REMUX.AVC.DTS-HD.MA.2.0-FGT 17.50GB-4.png





回复

使用道具 举报

级别:专业龙套 Lv.4

UID
4064
注册时间
2018-5-27
最后登录
2019-1-13
听众
3
收听
0
主题
0
蓝光币
1 枚
贡献
0 点
发表于 6 天前 | 显示全部楼层
感谢分享!
回复

使用道具 举报

懒得打字嘛,点击右侧快捷回复 【右侧内容,后台自定义】
您需要登录后才可以回帖 登录 | 立即注册

本版积分规则

QQ|Archiver|手机版|小黑屋|中国高清网 |网站地图

GMT+8, 2019-1-17 13:14 , Processed in 0.131689 second(s), 41 queries .

Powered by HDchina X3.4

Copyright 2017-2018©HDchina.All right reserved

返回顶部 联系我们