你所知道的4K资源这里全部都有 4K电影 | 4K视频 | 4K壁纸 | 4K MV 怎么播放4K视频 | 4K电视演示片

教你玩转4K私人与家庭影院存储 NAS组装 | 黑群辉 家庭/影院Nas论坛

4K家庭影院信号源与视频设备知识 4K蓝光高清播放机 - 那个品牌好? 4K投影机论坛 | 4K电视机论坛

手把手教你搭建属于自己的家庭影院 4K家庭影院案例 | 家庭影院音频 4K家庭影院论坛

查看: 60|回复: 1

[剧情片] 下意识的残忍 Subconscious.Cruelty.2000.1080p.BluRay.REMUX.AVC.DTS-HD.MA.5.1-FGT 17.57GB

[复制链接]

 成长值: 730

级别:资源管理组

注册时间
2017-10-20
最后登录
2019-3-24
听众
0
收听
0
主题
76515
蓝光币
135278 枚
贡献
146324 点
发表于 2018-12-29 14:00:41 | 显示全部楼层 |阅读模式

下认识的残暴 Subconscious.Cruelty.2000.1080p.BluRay.REMUX.AVC.DTS-HD.MA.5.1-FGT 17.57GB-1.jpg
◎译  名 下认识的残暴
◎片  名 下认识的残暴 Subconscious Cruelty
◎年  代 1999
◎国  家 加拿大
◎类  别 剧情 / 行动 / 可骇 / 犯罪
◎语  言 英语
◎上映日期 2000-10-12
◎IMDb评分  5.2/10 from 1,356 users
◎IMDb链接  http://www.imdb.com/title/tt0166370/
◎豆瓣评分 6.7/10 from 675 users
◎豆瓣链接 https://movie.douban.com/subject/2279092/
◎片  长 92 分钟 / USA: 80 分钟(DVD version)
◎导  演 Karim Hussain
◎主  演 Brea Asher
      Ivaylo Founev
      Eric Pettigrew
      Christopher Piggins

◎简  介 

  加拿大著名的地下可骇片编剧和摄影师,这是他的导演童贞作.
  Very extreme film.
  "Subconscious Cruelty" has to be one of the most beautiful films I have ever seen.Still it's extremely grim and gory at times,so fans of politically correct mainstream horror garbage shouldn't bother.The film mixes many wonderful visuals with plenty of sleaze and gore.It is extremely odd,vicious and disturbing,so fans of bizarre cinema won't be disappointed. My favourite segment from "Subconscious Cruelty" is "Human Larvae" which shows us a twisted relationship between a young man and his pregnant sister.The birthing scene is particularly nasty and not easily forgotten.The last segment "Right Brain/Martyrdom" has to be seen to be believed.It's incredibly harsh and blasphemous with scenes of genital mutilation and grisly torture.We see Jesus Christ captured by three naked females who mutilate him,ripping flesh from his chest,licking a wound on his knee and pissing on him.There is also a Jesus statue with a projection of a swastika on it."Subconscious Cruelty" is a truly memorable film that should be seen by fans of extreme cinema.Check it out.
  Well, it's safe to say that Subconscious Cruelty is one weird film! Supposedly an insight into the human mind, Subconscious Cruelty is comprises four macabre and bizarre tales of the extreme. The first segment, entitled 'Ovarian Eyeball' is really just a warm up, but it's good in that it gives the viewer an idea of what to expect from the next three segments. It simply sees a naked woman laid out on a table, while another woman cuts into her abdomen and pulls out a human eyeball! I've got no idea what the point is, but it certainly makes for visceral viewing. The following story is the best of the bunch, and takes in the "old favourite" sick movie theme of incest. The segment follows a man who lives alone with his pregnant sister. He's repulsed by her pregnancy - yet he wants to have sex with her anyway, and naturally he gets his way. This story stands out because of the monotonous and 'matter of fact' narration, as well as the ending - which doesn't fail to deliver the shocks. This segment is well acted, well filmed and easily the highlight of Subconscious Cruelty.
  Naturally, the next two sections aren't as good as the second one; so the only way from there is down, but director Karim Hussain still manages to pull something out of the bag before the film ends. He doesn't do it right away, however, as the third segment is the weakest of the film, and simply sees a lot of people have sex with the ground. It's very surreal, and therefore memorable for that same reason; but there doesn't seem to be a lot of point to it, and I was in the mood for something a bit more morbid after the second section. The film ends on a high, however, as while I'm not entirely sure what the point was - the final segment features the film's best imagery. This segment focuses on religion, and certainly isn't for anyone that values it! Director Karim Hussain has achieved something here - as while this collection of four 'extreme' stories doesn't come together as a complete whole, the film almost feels tasteful as it's shot in such an eloquent and eye catching manner. The director would seem to have been imitating the highly respected surreal director Luis Bu?uel, albeit with gore, rape and incest; and if you ask me, he hasn't done a bad job at all. Not for everyone, but certainly worth a look for extreme fanatics!


  1. Video
  2. ID                                       : 1
  3. Format                                   : AVC
  4. Format/Info                              : Advanced Video Codec
  5. Format profile                           : [url=/cdn-cgi/l/email-protection][email protected][/url]
  6. Format settings                          : CABAC / 4 Ref Frames
  7. Format settings, CABAC                   : Yes
  8. Format settings, ReFrames                : 4 frames
  9. Codec ID                                 : V_MPEG4/ISO/AVC
  10. Duration                                 : 1 h 20 min
  11. Bit rate mode                            : Constant
  12. Bit rate                                 : 28.4 Mb/s
  13. Nominal bit rate                         : 34.0 Mb/s
  14. Width                                    : 1 920 pixels
  15. Height                                   : 1 080 pixels
  16. Display aspect ratio                     : 16:9
  17. Frame rate mode                          : Constant
  18. Frame rate                               : 23.976 (24000/1001) FPS
  19. Standard                                 : NTSC
  20. Color space                              : YUV
  21. Chroma subsampling                       : 4:2:0
  22. Bit depth                                : 8 bits
  23. Scan type                                : Progressive
  24. Bits/(Pixel*Frame)                       : 0.572
  25. Stream size                              : 16.0 GiB (91%)
  26. Title                                    : Subconscious.Cruelty.2000.1080p.BluRay.REMUX.AVC.DTS-HD.MA.5.1-FGT
  27. Language                                 : English
  28. Default                                  : No
  29. Forced                                   : No
  30. Color range                              : Limited
  31. Color primaries                          : BT.709
  32. Transfer characteristics                 : BT.709
  33. Matrix coefficients                      : BT.709

  34. Audio #1
  35. ID                                       : 2
  36. Format                                   : DTS XLL
  37. Format/Info                              : Digital Theater Systems
  38. Commercial name                          : DTS-HD Master Audio
  39. Codec ID                                 : A_DTS
  40. Duration                                 : 1 h 20 min
  41. Bit rate mode                            : Variable
  42. Bit rate                                 : 2 066 kb/s
  43. Channel(s)                               : 6 channels
  44. Channel layout                           : C L R Ls Rs LFE
  45. Sampling rate                            : 48.0 kHz
  46. Frame rate                               : 93.750 FPS (512 SPF)
  47. Bit depth                                : 16 bits
  48. Compression mode                         : Lossless
  49. Stream size                              : 1.16 GiB (7%)
  50. Title                                    : Subconscious.Cruelty.2000.1080p.BluRay.REMUX.AVC.DTS-HD.MA.5.1-FGT
  51. Language                                 : English
  52. Default                                  : Yes
  53. Forced                                   : No

  54. Audio #2
  55. ID                                       : 3
  56. Format                                   : DTS
  57. Format/Info                              : Digital Theater Systems
  58. Codec ID                                 : A_DTS
  59. Duration                                 : 1 h 20 min
  60. Bit rate mode                            : Constant
  61. Bit rate                                 : 768 kb/s
  62. Channel(s)                               : 6 channels
  63. Channel layout                           : C L R Ls Rs LFE
  64. Sampling rate                            : 48.0 kHz
  65. Frame rate                               : 93.750 FPS (512 SPF)
  66. Bit depth                                : 16 bits
  67. Compression mode                         : Lossy
  68. Stream size                              : 442 MiB (2%)
  69. Title                                    : Subconscious.Cruelty.2000.1080p.BluRay.REMUX.AVC.DTS-HD.MA.5.1-FGT
  70. Language                                 : English
  71. Default                                  : No
  72. Forced                                   : No

  73. Menu
  74. 00:00:00.000                             : en:Chapter 01
  75. 00:07:18.271                             : en:Chapter 02
  76. 00:17:10.320                             : en:Chapter 03
  77. 00:27:02.495                             : en:Chapter 04
  78. 00:33:58.703                             : en:Chapter 05
  79. 00:41:58.474                             : en:Chapter 06
  80. 00:49:07.486                             : en:Chapter 07
  81. 00:59:49.711                             : en:Chapter 08
  82. 01:05:37.099                             : en:Chapter 09
  83. 01:11:16.855                             : en:Chapter 10
  84. 01:13:13.931                             : en:Chapter 11
  85. 01:16:09.147                             : en:Chapter 12
复制代码

复制代码

下认识的残暴 Subconscious.Cruelty.2000.1080p.BluRay.REMUX.AVC.DTS-HD.MA.5.1-FGT 17.57GB-2.png 下认识的残暴 Subconscious.Cruelty.2000.1080p.BluRay.REMUX.AVC.DTS-HD.MA.5.1-FGT 17.57GB-3.png 下认识的残暴 Subconscious.Cruelty.2000.1080p.BluRay.REMUX.AVC.DTS-HD.MA.5.1-FGT 17.57GB-4.png





回复

使用道具 举报

级别:荣升主角 Lv.5

注册时间
2018-5-27
最后登录
2019-3-23
听众
4
收听
0
主题
0
蓝光币
17 枚
贡献
0 点
发表于 2019-1-11 21:10:16 | 显示全部楼层
感谢分享!
回复

使用道具 举报

懒得打字嘛,点击右侧快捷回复 【右侧内容,后台自定义】
您需要登录后才可以回帖 登录 | 立即注册

本版积分规则

QQ|Archiver|手机版|小黑屋|中国高清网 |网站地图

GMT+8, 2019-3-24 11:04 , Processed in 0.154520 second(s), 41 queries .

Powered by HDchina X3.4

Copyright 2017-2018©HDchina.All right reserved

返回顶部 联系我们