你所知道的4K资源这里全部都有 4K电影 | 4K视频 | 4K壁纸 | 4K MV 怎么播放4K视频 | 4K电视演示片

教你玩转4K私人与家庭影院存储 NAS组装 | 黑群辉 家庭/影院Nas论坛

4K家庭影院信号源与视频设备知识 4K蓝光高清播放机 - 那个品牌好? 4K投影机论坛 | 4K电视机论坛

手把手教你搭建属于自己的家庭影院 4K家庭影院案例 | 家庭影院音频 4K家庭影院论坛

查看: 60|回复: 1

[剧情片] 冠军/冠军大叔 Champion.2018.KOREAN.1080p.BluRay.REMUX.AVC.DTS-HD.MA.5.1-FGT 28.31GB

[复制链接]

 成长值: 70

级别:资源管理组

UID
1
注册时间
2017-10-20
最后登录
2019-1-17
听众
0
收听
0
主题
73857
蓝光币
114336 枚
贡献
143666 点
发表于 2018-12-26 22:46:54 | 显示全部楼层 |阅读模式

冠军/冠军大叔 Champion.2018.KOREAN.1080p.BluRay.REMUX.AVC.DTS-HD.MA.5.1-FGT 28.31GB-1.jpg
◎译  名 冠军 / 冠军大叔(台) / 神臂大叔(港) / Champion
◎片  名 冠军 ???
◎年  代 2018
◎国  家 韩国
◎类  别 剧情 / 活动
◎语  言 韩语
◎上映日期 2018-05-01(韩国)
◎IMDb评分  5.5/10 from 234 users
◎IMDb链接  http://www.imdb.com/title/tt8367080/
◎豆瓣评分 6.2/10 from 1275 users
◎豆瓣链接 https://movie.douban.com/subject/27129663/
◎片  长 108分钟
◎导  演 金勇完
◎主  演 马东锡
      权律
      韩艺璃
      崔昇勋
      玉艺琳
      姜新孝
      宋在熙
      杨贤民
       琴光山
       李奎浩
      南延佑
      朴宣浩
      吴昌庆
      柳顺雄
      金钟求
      全余琳
      全惠媛
      黃相庆
       俞智妍
      姜承贤
      刘盛玉
      孙淑子
       朴光才
      陆进秀
      杨祖儿
      李范圭
      白桑熙
      朴成日
      朴贊佑
       郭子亨

◎简  介 

  在美国洛杉矶夜店工作的马克(马东石 饰),一向胡想在腕力角逐中成为天下冠军,被自认是他掮客人的晋基(权律 饰)压服,回到韩国加入全国腕力大赛。
  除了角逐之外,晋基还送了从小被领养到美国的马克亲生母亲住家地址当做返国礼物。不外,马克只碰见从没见过面的妹妹秀珍(韩艺利 饰)和她的 一双后代。在晋基牵线下,马克加入不法的腕力角逐。面临腕力怪物强敌环伺,在家人的支持下,马克可以一圆冠军梦吗?


  1. Video
  2. ID                                       : 1
  3. Format                                   : AVC
  4. Format/Info                              : Advanced Video Codec
  5. Format profile                           : [url=/cdn-cgi/l/email-protection][email protected][/url]
  6. Format settings                          : CABAC / 4 Ref Frames
  7. Format settings, CABAC                   : Yes
  8. Format settings, ReFrames                : 4 frames
  9. Codec ID                                 : V_MPEG4/ISO/AVC
  10. Duration                                 : 1 h 48 min
  11. Bit rate mode                            : Variable
  12. Bit rate                                 : 32.0 Mb/s
  13. Maximum bit rate                         : 37.0 Mb/s
  14. Width                                    : 1 920 pixels
  15. Height                                   : 1 080 pixels
  16. Display aspect ratio                     : 16:9
  17. Frame rate mode                          : Constant
  18. Frame rate                               : 23.976 (24000/1001) FPS
  19. Standard                                 : Component
  20. Color space                              : YUV
  21. Chroma subsampling                       : 4:2:0
  22. Bit depth                                : 8 bits
  23. Scan type                                : Progressive
  24. Bits/(Pixel*Frame)                       : 0.644
  25. Stream size                              : 24.1 GiB (85%)
  26. Title                                    : Champion.2018.KOREAN.1080p.BluRay.REMUX.AVC.DTS-HD.MA.5.1-FGT
  27. Writing library                          : x264 core 148
  28. Encoding settings                        : cabac=1 / ref=4 / deblock=1:0:0 / analyse=0x3:0x113 / me=hex / subme=7 / psy=1 / psy_rd=1.00:0.00 / mixed_ref=1 / me_range=16 / chroma_me=1 / trellis=1 / 8x8dct=1 / cqm=1 / deadzone=21,11 / fast_pskip=1 / chroma_qp_offset=-2 / threads=34 / lookahead_threads=5 / sliced_threads=0 / slices=4 / nr=0 / decimate=1 / interlaced=0 / minigop=1 / stitchable=1 / constrained_intra=0 / bframes=2 / b_pyramid=0 / b_adapt=1 / b_bias=0 / direct=1 / weightb=1 / open_gop=1 / weightp=1 / keyint=24 / keyint_min=1 / scenecut=40 / intra_refresh=0 / rc_lookahead=24 / rc=2pass / mbtree=1 / bitrate=32000 / ratetol=1.0 / qcomp=0.60 / qpmin=3 / qpmax=69 / qpstep=4 / cplxblur=20.0 / qblur=0.5 / vbv_maxrate=37000 / vbv_bufsize=30000 / nal_hrd=vbr / filler=0 / ip_ratio=1.40 / aq=1:1.00
  29. Language                                 : English
  30. Default                                  : No
  31. Forced                                   : No
  32. Color range                              : Limited
  33. Color primaries                          : BT.709
  34. Transfer characteristics                 : BT.709
  35. Matrix coefficients                      : BT.709

  36. Audio #1
  37. ID                                       : 2
  38. Format                                   : DTS XLL
  39. Format/Info                              : Digital Theater Systems
  40. Commercial name                          : DTS-HD Master Audio
  41. Codec ID                                 : A_DTS
  42. Duration                                 : 1 h 48 min
  43. Bit rate mode                            : Variable
  44. Bit rate                                 : 3 702 kb/s
  45. Channel(s)                               : 6 channels
  46. Channel layout                           : C L R Ls Rs LFE
  47. Sampling rate                            : 48.0 kHz
  48. Frame rate                               : 93.750 FPS (512 SPF)
  49. Bit depth                                : 24 bits
  50. Compression mode                         : Lossless
  51. Stream size                              : 2.80 GiB (10%)
  52. Title                                    : Champion.2018.KOREAN.1080p.BluRay.REMUX.AVC.DTS-HD.MA.5.1-FGT
  53. Language                                 : Korean
  54. Default                                  : Yes
  55. Forced                                   : No

  56. Audio #2
  57. ID                                       : 3
  58. Format                                   : DTS
  59. Format/Info                              : Digital Theater Systems
  60. Codec ID                                 : A_DTS
  61. Duration                                 : 1 h 48 min
  62. Bit rate mode                            : Constant
  63. Bit rate                                 : 1 509 kb/s
  64. Channel(s)                               : 6 channels
  65. Channel layout                           : C L R Ls Rs LFE
  66. Sampling rate                            : 48.0 kHz
  67. Frame rate                               : 93.750 FPS (512 SPF)
  68. Bit depth                                : 24 bits
  69. Compression mode                         : Lossy
  70. Stream size                              : 1.14 GiB (4%)
  71. Title                                    : Champion.2018.KOREAN.1080p.BluRay.REMUX.AVC.DTS-HD.MA.5.1-FGT
  72. Language                                 : Korean
  73. Default                                  : No
  74. Forced                                   : No

  75. Audio #3
  76. ID                                       : 4
  77. Format                                   : AC-3
  78. Format/Info                              : Audio Coding 3
  79. Commercial name                          : Dolby Digital
  80. Codec ID                                 : A_AC3
  81. Duration                                 : 1 h 48 min
  82. Bit rate mode                            : Constant
  83. Bit rate                                 : 320 kb/s
  84. Channel(s)                               : 2 channels
  85. Channel layout                           : L R
  86. Sampling rate                            : 48.0 kHz
  87. Frame rate                               : 31.250 FPS (1536 SPF)
  88. Bit depth                                : 16 bits
  89. Compression mode                         : Lossy
  90. Stream size                              : 247 MiB (1%)
  91. Title                                    : Champion.2018.KOREAN.1080p.BluRay.REMUX.AVC.DTS-HD.MA.5.1-FGT
  92. Language                                 : Korean
  93. Service kind                             : Complete Main
  94. Default                                  : No
  95. Forced                                   : No

  96. Text #1
  97. ID                                       : 5
  98. Format                                   : PGS
  99. Muxing mode                              : zlib
  100. Codec ID                                 : S_HDMV/PGS
  101. Codec ID/Info                            : Picture based subtitle format used on BDs/HD-DVDs
  102. Duration                                 : 1 h 43 min
  103. Bit rate                                 : 36.7 kb/s
  104. Count of elements                        : 2817
  105. Stream size                              : 27.2 MiB (0%)
  106. Title                                    : English-PGS
  107. Language                                 : English
  108. Default                                  : Yes
  109. Forced                                   : No

  110. Text #2
  111. ID                                       : 6
  112. Format                                   : PGS
  113. Muxing mode                              : zlib
  114. Codec ID                                 : S_HDMV/PGS
  115. Codec ID/Info                            : Picture based subtitle format used on BDs/HD-DVDs
  116. Duration                                 : 1 h 42 min
  117. Bit rate                                 : 36.7 kb/s
  118. Count of elements                        : 2838
  119. Stream size                              : 27.0 MiB (0%)
  120. Title                                    : Korean-PGS
  121. Language                                 : Korean
  122. Default                                  : No
  123. Forced                                   : No

  124. Menu
  125. 00:00:00.000                             : en:Chapter 01
  126. 00:06:58.835                             : en:Chapter 02
  127. 00:13:48.786                             : en:Chapter 03
  128. 00:22:08.243                             : en:Chapter 04
  129. 00:28:04.099                             : en:Chapter 05
  130. 00:37:15.316                             : en:Chapter 06
  131. 00:45:08.330                             : en:Chapter 07
  132. 00:51:21.578                             : en:Chapter 08
  133. 00:58:13.198                             : en:Chapter 09
  134. 01:06:13.010                             : en:Chapter 10
  135. 01:11:54.101                             : en:Chapter 11
  136. 01:18:11.812                             : en:Chapter 12
  137. 01:24:22.724                             : en:Chapter 13
  138. 01:30:15.076                             : en:Chapter 14
  139. 01:36:08.387                             : en:Chapter 15
  140. 01:43:20.611                             : en:Chapter 16
复制代码

复制代码

冠军/冠军大叔 Champion.2018.KOREAN.1080p.BluRay.REMUX.AVC.DTS-HD.MA.5.1-FGT 28.31GB-2.png 冠军/冠军大叔 Champion.2018.KOREAN.1080p.BluRay.REMUX.AVC.DTS-HD.MA.5.1-FGT 28.31GB-3.png 冠军/冠军大叔 Champion.2018.KOREAN.1080p.BluRay.REMUX.AVC.DTS-HD.MA.5.1-FGT 28.31GB-4.png





回复

使用道具 举报

级别:专业龙套 Lv.4

UID
4064
注册时间
2018-5-27
最后登录
2019-1-13
听众
3
收听
0
主题
0
蓝光币
1 枚
贡献
0 点
发表于 6 天前 | 显示全部楼层
感谢分享!
回复

使用道具 举报

懒得打字嘛,点击右侧快捷回复 【右侧内容,后台自定义】
您需要登录后才可以回帖 登录 | 立即注册

本版积分规则

QQ|Archiver|手机版|小黑屋|中国高清网 |网站地图

GMT+8, 2019-1-17 13:04 , Processed in 0.155869 second(s), 41 queries .

Powered by HDchina X3.4

Copyright 2017-2018©HDchina.All right reserved

返回顶部 联系我们