你所知道的4K资源这里全部都有 4K电影 | 4K视频 | 4K壁纸 | 4K MV 怎么播放4K视频 | 4K电视演示片

教你玩转4K私人与家庭影院存储 NAS组装 | 黑群辉 家庭/影院Nas论坛

4K家庭影院信号源与视频设备知识 4K蓝光高清播放机 - 那个品牌好? 4K投影机论坛 | 4K电视机论坛

手把手教你搭建属于自己的家庭影院 4K家庭影院案例 | 家庭影院音频 4K家庭影院论坛

查看: 52|回复: 1

[喜剧片] 真事信不信/德克萨斯的音乐之旅 True.Stories.1986.1080p.BluRay.REMUX.AVC.DTS-HD.MA.5.1-FGT 25.38GB

[复制链接]

 成长值: 130

级别:资源管理组

UID
1
注册时间
2017-10-20
最后登录
2019-1-22
听众
0
收听
0
主题
73996
蓝光币
116842 枚
贡献
143805 点
发表于 2018-12-25 22:00:26 | 显示全部楼层 |阅读模式

真事信不信/德克萨斯的音乐之旅 True.Stories.1986.1080p.BluRay.REMUX.AVC.DTS-HD.MA.5.1-FGT 25.38GB-1.jpg
◎译  名 真事信不信 / 德克萨斯的音乐之旅
◎片  名 真事信不信 True Stories
◎年  代 1986
◎国  家 美国
◎类  别 笑剧 / 歌舞
◎语  言 英语
◎上映日期 1986-10-10(美国)
◎IMDb评分  7.1/10 from 4,415 users
◎IMDb链接  http://www.imdb.com/title/tt0092117/
◎豆瓣评分 今朝无人评价
◎豆瓣链接 https://movie.douban.com/subject/1307564/
◎片  长 90分钟
◎导  演 大卫·伯恩
◎主  演 大卫·伯恩
      约翰·古德曼
      斯波尔丁·格雷
      迪图·拉里瓦
      斯薇兹·昆茨

◎简  介 

  本片以仆人公大卫·布莱恩架车游历美国得克萨斯州进程中所见所闻为主线,透过一个个具有鲜明本性的小人物及发生在他们身上的故事,展现了当地人对于生活和恋爱的怪异了解。该片值得称道的是将歌舞与写实完善连系,大量旋律优美的村落民谣,歌曲成为片中最刺眼的亮点,也是导演大卫·布莱恩对电影艺术的创新之举,是一次成功的摸索。


  1. Video
  2. ID                                       : 1
  3. Format                                   : AVC
  4. Format/Info                              : Advanced Video Codec
  5. Format profile                           : [url=/cdn-cgi/l/email-protection][email protected][/url]
  6. Format settings                          : CABAC / 4 Ref Frames
  7. Format settings, CABAC                   : Yes
  8. Format settings, ReFrames                : 4 frames
  9. Codec ID                                 : V_MPEG4/ISO/AVC
  10. Duration                                 : 1 h 29 min
  11. Bit rate mode                            : Variable
  12. Bit rate                                 : 35.7 Mb/s
  13. Maximum bit rate                         : 37.0 Mb/s
  14. Width                                    : 1 920 pixels
  15. Height                                   : 1 080 pixels
  16. Display aspect ratio                     : 16:9
  17. Frame rate mode                          : Constant
  18. Frame rate                               : 23.976 (24000/1001) FPS
  19. Color space                              : YUV
  20. Chroma subsampling                       : 4:2:0
  21. Bit depth                                : 8 bits
  22. Scan type                                : Progressive
  23. Bits/(Pixel*Frame)                       : 0.719
  24. Stream size                              : 22.3 GiB (88%)
  25. Title                                    : True.Stories.1986.1080p.BluRay.REMUX.AVC.DTS-HD.MA.5.1-FGT
  26. Language                                 : English
  27. Default                                  : No
  28. Forced                                   : No

  29. Audio #1
  30. ID                                       : 2
  31. Format                                   : DTS XLL
  32. Format/Info                              : Digital Theater Systems
  33. Commercial name                          : DTS-HD Master Audio
  34. Codec ID                                 : A_DTS
  35. Duration                                 : 1 h 29 min
  36. Bit rate mode                            : Variable
  37. Bit rate                                 : 3 430 kb/s
  38. Channel(s)                               : 6 channels
  39. Channel layout                           : C L R Ls Rs LFE
  40. Sampling rate                            : 48.0 kHz
  41. Frame rate                               : 93.750 FPS (512 SPF)
  42. Bit depth                                : 24 bits
  43. Compression mode                         : Lossless
  44. Stream size                              : 2.14 GiB (8%)
  45. Title                                    : True.Stories.1986.1080p.BluRay.REMUX.AVC.DTS-HD.MA.5.1-FGT
  46. Language                                 : English
  47. Default                                  : Yes
  48. Forced                                   : No

  49. Audio #2
  50. ID                                       : 3
  51. Format                                   : DTS
  52. Format/Info                              : Digital Theater Systems
  53. Codec ID                                 : A_DTS
  54. Duration                                 : 1 h 29 min
  55. Bit rate mode                            : Constant
  56. Bit rate                                 : 1 509 kb/s
  57. Channel(s)                               : 6 channels
  58. Channel layout                           : C L R Ls Rs LFE
  59. Sampling rate                            : 48.0 kHz
  60. Frame rate                               : 93.750 FPS (512 SPF)
  61. Bit depth                                : 24 bits
  62. Compression mode                         : Lossy
  63. Stream size                              : 964 MiB (4%)
  64. Title                                    : True.Stories.1986.1080p.BluRay.REMUX.AVC.DTS-HD.MA.5.1-FGT
  65. Language                                 : English
  66. Default                                  : No
  67. Forced                                   : No

  68. Text
  69. ID                                       : 4
  70. Format                                   : PGS
  71. Muxing mode                              : zlib
  72. Codec ID                                 : S_HDMV/PGS
  73. Codec ID/Info                            : Picture based subtitle format used on BDs/HD-DVDs
  74. Duration                                 : 1 h 28 min
  75. Bit rate                                 : 62.5 kb/s
  76. Count of elements                        : 2728
  77. Stream size                              : 39.5 MiB (0%)
  78. Title                                    : English-PGS
  79. Language                                 : English
  80. Default                                  : Yes
  81. Forced                                   : No

  82. Menu
  83. 00:00:00.000                             : en:Chapter 01
  84. 00:01:55.698                             : en:Chapter 02
  85. 00:05:35.376                             : en:Chapter 03
  86. 00:09:01.832                             : en:Chapter 04
  87. 00:11:04.830                             : en:Chapter 05
  88. 00:12:55.483                             : en:Chapter 06
  89. 00:15:34.850                             : en:Chapter 07
  90. 00:19:03.225                             : en:Chapter 08
  91. 00:21:28.328                             : en:Chapter 09
  92. 00:24:50.197                             : en:Chapter 10
  93. 00:30:06.429                             : en:Chapter 11
  94. 00:31:00.149                             : en:Chapter 12
  95. 00:34:05.293                             : en:Chapter 13
  96. 00:38:37.398                             : en:Chapter 14
  97. 00:44:42.096                             : en:Chapter 15
  98. 00:46:51.016                             : en:Chapter 16
  99. 00:48:22.316                             : en:Chapter 17
  100. 00:53:00.260                             : en:Chapter 18
  101. 00:54:00.654                             : en:Chapter 19
  102. 00:57:39.539                             : en:Chapter 20
  103. 00:59:47.875                             : en:Chapter 21
  104. 01:03:49.492                             : en:Chapter 22
  105. 01:08:02.244                             : en:Chapter 23
  106. 01:09:53.105                             : en:Chapter 24
  107. 01:12:31.930                             : en:Chapter 25
  108. 01:15:18.388                             : en:Chapter 26
  109. 01:19:14.583                             : en:Chapter 27
  110. 01:22:33.114                             : en:Chapter 28
  111. 01:24:22.807                             : en:Chapter 29
复制代码

复制代码

真事信不信/德克萨斯的音乐之旅 True.Stories.1986.1080p.BluRay.REMUX.AVC.DTS-HD.MA.5.1-FGT 25.38GB-2.png 真事信不信/德克萨斯的音乐之旅 True.Stories.1986.1080p.BluRay.REMUX.AVC.DTS-HD.MA.5.1-FGT 25.38GB-3.png 真事信不信/德克萨斯的音乐之旅 True.Stories.1986.1080p.BluRay.REMUX.AVC.DTS-HD.MA.5.1-FGT 25.38GB-4.png





回复

使用道具 举报

级别:专业龙套 Lv.4

UID
4064
注册时间
2018-5-27
最后登录
2019-1-22
听众
3
收听
0
主题
0
蓝光币
2 枚
贡献
0 点
发表于 2019-1-12 17:55:49 | 显示全部楼层
感谢分享!
回复

使用道具 举报

懒得打字嘛,点击右侧快捷回复 【右侧内容,后台自定义】
您需要登录后才可以回帖 登录 | 立即注册

本版积分规则

QQ|Archiver|手机版|小黑屋|中国高清网 |网站地图

GMT+8, 2019-1-23 00:56 , Processed in 0.128603 second(s), 40 queries .

Powered by HDchina X3.4

Copyright 2017-2018©HDchina.All right reserved

返回顶部 联系我们