你所知道的4K资源这里全部都有 4K电影 | 4K视频 | 4K壁纸 | 4K MV 怎么播放4K视频 | 4K电视演示片

教你玩转4K私人与家庭影院存储 NAS组装 | 黑群辉 家庭/影院Nas论坛

4K家庭影院信号源与视频设备知识 4K蓝光高清播放机 - 那个品牌好? 4K投影机论坛 | 4K电视机论坛

手把手教你搭建属于自己的家庭影院 4K家庭影院案例 | 家庭影院音频 4K家庭影院论坛

查看: 71|回复: 3

[悬疑片] 皇家酒店谋杀案/皇家酒店的悲惨时光 Bad.Times.At.The.El.Royale.2018.1080p.BluRay.REMUX.AVC.DTS-HD.MA.7.1-FGT 33.48GB

[复制链接]

 成长值: 70

级别:资源管理组

UID
1
注册时间
2017-10-20
最后登录
2019-1-17
听众
0
收听
0
主题
73857
蓝光币
114344 枚
贡献
143666 点
发表于 2018-12-22 21:21:14 | 显示全部楼层 |阅读模式

皇家酒店谋杀案/皇家酒店的悲凉时光 Bad.Times.At.The.El.Royale.2018.1080p.BluRay.REMUX.AVC.DTS-HD.MA.7.1-FGT 33.48GB-1.jpg
◎译  名 皇家酒店谋杀案 / 皇家酒店的悲凉时光 / 好事大饭馆(台) / 贼眉贼眼大酒店(港)
◎片  名 皇家酒店谋杀案 Bad Times at the El Royale
◎年  代 2018
◎国  家 美国
◎类  别 悬疑 / 惊悚
◎语  言 英语
◎上映日期 2018-09-27(奇异电影节) / 2018-10-12(美国)
◎IMDb评分  7.3/10 from 26,643 users
◎IMDb链接  http://www.imdb.com/title/tt6628394/
◎豆瓣评分 6.9/10 from 2086 users
◎豆瓣链接 https://movie.douban.com/subject/26992553/
◎片  长 141分钟
◎导  演 德鲁·高达
◎主  演 克里斯·海姆斯沃斯
      尼克·奥弗曼
      乔恩·哈姆
      达科塔·约翰逊
      杰夫·布里吉斯
      卡莉·史派妮
      曼尼·贾希尼托
      马克·奥布莱恩
      吉姆·奥希尔
      刘易斯·普尔曼
      乔纳森·怀特赛尔
      比利·威克曼
      萨拉·史姑娘
      辛西娅·艾莉佛

◎简  介 

  故事围绕上世纪60年月,七个心胸奥秘的陌生人,在一个陈旧的有着黑暗历史的皇家酒店相遇。在宿命之夜,每小我紧握最初的机遇。

◎获奖情况 

  第17届华盛顿影评人协会奖 (2018)
  最好女配角(提名) 辛西娅·艾莉佛

  第39届伦敦影评人协会奖 (2019)
  年度女配角(提名) 辛西娅·艾莉佛


  1. Video
  2. ID                                       : 1
  3. Format                                   : AVC
  4. Format/Info                              : Advanced Video Codec
  5. Format profile                           : [url=/cdn-cgi/l/email-protection][email protected][/url]
  6. Format settings                          : CABAC / 4 Ref Frames
  7. Format settings, CABAC                   : Yes
  8. Format settings, ReFrames                : 4 frames
  9. Codec ID                                 : V_MPEG4/ISO/AVC
  10. Duration                                 : 2 h 21 min
  11. Bit rate mode                            : Variable
  12. Bit rate                                 : 26.2 Mb/s
  13. Maximum bit rate                         : 32.5 Mb/s
  14. Width                                    : 1 920 pixels
  15. Height                                   : 1 080 pixels
  16. Display aspect ratio                     : 16:9
  17. Frame rate mode                          : Constant
  18. Frame rate                               : 23.976 (24000/1001) FPS
  19. Color space                              : YUV
  20. Chroma subsampling                       : 4:2:0
  21. Bit depth                                : 8 bits
  22. Scan type                                : Progressive
  23. Bits/(Pixel*Frame)                       : 0.527
  24. Stream size                              : 25.9 GiB (77%)
  25. Title                                    : Bad.Times.At.The.El.Royale.2018.1080p.BluRay.REMUX.AVC.DTS-HD.MA.7.1-FGT
  26. Language                                 : English
  27. Default                                  : No
  28. Forced                                   : No

  29. Audio #1
  30. ID                                       : 2
  31. Format                                   : DTS ES XLL
  32. Format/Info                              : Digital Theater Systems
  33. Commercial name                          : DTS-HD Master Audio
  34. Codec ID                                 : A_DTS
  35. Duration                                 : 2 h 21 min
  36. Bit rate mode                            : Variable
  37. Bit rate                                 : 4 778 kb/s
  38. Channel(s)                               : 8 channels
  39. Channel layout                           : C L R Ls Rs LFE Lb Rb
  40. Sampling rate                            : 48.0 kHz
  41. Frame rate                               : 93.750 FPS (512 SPF)
  42. Bit depth                                : 24 bits
  43. Compression mode                         : Lossless
  44. Stream size                              : 4.73 GiB (14%)
  45. Title                                    : Bad.Times.At.The.El.Royale.2018.1080p.BluRay.REMUX.AVC.DTS-HD.MA.7.1-FGT
  46. Language                                 : English
  47. Default                                  : Yes
  48. Forced                                   : No

  49. Audio #2
  50. ID                                       : 3
  51. Format                                   : DTS ES
  52. Format/Info                              : Digital Theater Systems
  53. Commercial name                          : DTS-ES Matrix
  54. Codec ID                                 : A_DTS
  55. Duration                                 : 2 h 21 min
  56. Bit rate mode                            : Constant
  57. Bit rate                                 : 1 509 kb/s
  58. Channel(s)                               : 6 channels
  59. Channel(s)_Original                      : 7 channels
  60. Channel layout                           : C L R Ls Rs Cb LFE
  61. Sampling rate                            : 48.0 kHz
  62. Frame rate                               : 93.750 FPS (512 SPF)
  63. Bit depth                                : 24 bits
  64. Compression mode                         : Lossy
  65. Stream size                              : 1.49 GiB (4%)
  66. Title                                    : Bad.Times.At.The.El.Royale.2018.1080p.BluRay.REMUX.AVC.DTS-HD.MA.7.1-FGT
  67. Language                                 : English
  68. Default                                  : No
  69. Forced                                   : No

  70. Audio #3
  71. ID                                       : 4
  72. Format                                   : AC-3
  73. Format/Info                              : Audio Coding 3
  74. Commercial name                          : Dolby Digital
  75. Codec ID                                 : A_AC3
  76. Duration                                 : 2 h 21 min
  77. Bit rate mode                            : Constant
  78. Bit rate                                 : 448 kb/s
  79. Channel(s)                               : 6 channels
  80. Channel layout                           : L R C LFE Ls Rs
  81. Sampling rate                            : 48.0 kHz
  82. Frame rate                               : 31.250 FPS (1536 SPF)
  83. Bit depth                                : 16 bits
  84. Compression mode                         : Lossy
  85. Stream size                              : 454 MiB (1%)
  86. Title                                    : Bad.Times.At.The.El.Royale.2018.1080p.BluRay.REMUX.AVC.DTS-HD.MA.7.1-FGT
  87. Language                                 : English
  88. Service kind                             : Complete Main
  89. Default                                  : No
  90. Forced                                   : No

  91. Audio #4
  92. ID                                       : 5
  93. Format                                   : AC-3
  94. Format/Info                              : Audio Coding 3
  95. Commercial name                          : Dolby Digital
  96. Codec ID                                 : A_AC3
  97. Duration                                 : 2 h 21 min
  98. Bit rate mode                            : Constant
  99. Bit rate                                 : 448 kb/s
  100. Channel(s)                               : 6 channels
  101. Channel layout                           : L R C LFE Ls Rs
  102. Sampling rate                            : 48.0 kHz
  103. Frame rate                               : 31.250 FPS (1536 SPF)
  104. Bit depth                                : 16 bits
  105. Compression mode                         : Lossy
  106. Stream size                              : 454 MiB (1%)
  107. Title                                    : Bad.Times.At.The.El.Royale.2018.1080p.BluRay.REMUX.AVC.DTS-HD.MA.7.1-FGT
  108. Language                                 : Spanish
  109. Service kind                             : Complete Main
  110. Default                                  : No
  111. Forced                                   : No

  112. Audio #5
  113. ID                                       : 6
  114. Format                                   : AC-3
  115. Format/Info                              : Audio Coding 3
  116. Commercial name                          : Dolby Digital
  117. Codec ID                                 : A_AC3
  118. Duration                                 : 2 h 21 min
  119. Bit rate mode                            : Constant
  120. Bit rate                                 : 448 kb/s
  121. Channel(s)                               : 6 channels
  122. Channel layout                           : L R C LFE Ls Rs
  123. Sampling rate                            : 48.0 kHz
  124. Frame rate                               : 31.250 FPS (1536 SPF)
  125. Bit depth                                : 16 bits
  126. Compression mode                         : Lossy
  127. Stream size                              : 454 MiB (1%)
  128. Title                                    : Bad.Times.At.The.El.Royale.2018.1080p.BluRay.REMUX.AVC.DTS-HD.MA.7.1-FGT
  129. Language                                 : French
  130. Service kind                             : Complete Main
  131. Default                                  : No
  132. Forced                                   : No

  133. Text #1
  134. ID                                       : 7
  135. Format                                   : PGS
  136. Muxing mode                              : zlib
  137. Codec ID                                 : S_HDMV/PGS
  138. Codec ID/Info                            : Picture based subtitle format used on BDs/HD-DVDs
  139. Duration                                 : 2 h 18 min
  140. Bit rate                                 : 31.1 kb/s
  141. Count of elements                        : 3422
  142. Stream size                              : 30.7 MiB (0%)
  143. Title                                    : English_PGS
  144. Language                                 : English
  145. Default                                  : Yes
  146. Forced                                   : No

  147. Text #2
  148. ID                                       : 8
  149. Format                                   : PGS
  150. Muxing mode                              : zlib
  151. Codec ID                                 : S_HDMV/PGS
  152. Codec ID/Info                            : Picture based subtitle format used on BDs/HD-DVDs
  153. Duration                                 : 2 h 17 min
  154. Bit rate                                 : 23.5 kb/s
  155. Count of elements                        : 2532
  156. Stream size                              : 23.1 MiB (0%)
  157. Title                                    : Spanish-PGS
  158. Language                                 : Spanish
  159. Default                                  : No
  160. Forced                                   : No

  161. Text #3
  162. ID                                       : 9
  163. Format                                   : PGS
  164. Muxing mode                              : zlib
  165. Codec ID                                 : S_HDMV/PGS
  166. Codec ID/Info                            : Picture based subtitle format used on BDs/HD-DVDs
  167. Duration                                 : 1 h 55 min
  168. Bit rate                                 : 71 b/s
  169. Count of elements                        : 6
  170. Stream size                              : 60.0 KiB (0%)
  171. Title                                    : Spanish-FORCED-PGS
  172. Language                                 : Spanish
  173. Default                                  : No
  174. Forced                                   : No

  175. Text #4
  176. ID                                       : 10
  177. Format                                   : PGS
  178. Muxing mode                              : zlib
  179. Codec ID                                 : S_HDMV/PGS
  180. Codec ID/Info                            : Picture based subtitle format used on BDs/HD-DVDs
  181. Duration                                 : 2 h 17 min
  182. Bit rate                                 : 24.9 kb/s
  183. Count of elements                        : 2656
  184. Stream size                              : 24.5 MiB (0%)
  185. Title                                    : French-PGS
  186. Language                                 : French
  187. Default                                  : No
  188. Forced                                   : No

  189. Text #5
  190. ID                                       : 11
  191. Format                                   : PGS
  192. Muxing mode                              : zlib
  193. Codec ID                                 : S_HDMV/PGS
  194. Codec ID/Info                            : Picture based subtitle format used on BDs/HD-DVDs
  195. Duration                                 : 2 h 17 min
  196. Bit rate                                 : 598 b/s
  197. Count of elements                        : 62
  198. Stream size                              : 602 KiB (0%)
  199. Title                                    : French-FORCED
  200. Language                                 : French
  201. Default                                  : No
  202. Forced                                   : No

  203. Text #6
  204. ID                                       : 12
  205. Format                                   : PGS
  206. Muxing mode                              : zlib
  207. Codec ID                                 : S_HDMV/PGS
  208. Codec ID/Info                            : Picture based subtitle format used on BDs/HD-DVDs
  209. Duration                                 : 2 h 17 min
  210. Bit rate                                 : 598 b/s
  211. Count of elements                        : 62
  212. Stream size                              : 602 KiB (0%)
  213. Title                                    : French-FORCED
  214. Language                                 : French
  215. Default                                  : No
  216. Forced                                   : No

  217. Menu
  218. 00:00:00.000                             : en:Chapter 01
  219. 00:04:19.592                             : en:Chapter 02
  220. 00:19:21.994                             : en:Chapter 03
  221. 00:34:32.779                             : en:Chapter 04
  222. 00:49:24.711                             : en:Chapter 05
  223. 00:51:19.868                             : en:Chapter 06
  224. 01:16:01.473                             : en:Chapter 07
  225. 01:37:13.369                             : en:Chapter 08
  226. 02:03:56.720                             : en:Chapter 09
  227. 02:14:09.041                             : en:Chapter 10
  228. 02:15:45.428                             : en:Chapter 11
复制代码

复制代码

皇家酒店谋杀案/皇家酒店的悲凉时光 Bad.Times.At.The.El.Royale.2018.1080p.BluRay.REMUX.AVC.DTS-HD.MA.7.1-FGT 33.48GB-2.png 皇家酒店谋杀案/皇家酒店的悲凉时光 Bad.Times.At.The.El.Royale.2018.1080p.BluRay.REMUX.AVC.DTS-HD.MA.7.1-FGT 33.48GB-3.png 皇家酒店谋杀案/皇家酒店的悲凉时光 Bad.Times.At.The.El.Royale.2018.1080p.BluRay.REMUX.AVC.DTS-HD.MA.7.1-FGT 33.48GB-4.png





回复

使用道具 举报

级别:普通观众 Lv.2

UID
11912
注册时间
2018-12-11
最后登录
2019-1-17
听众
0
收听
0
主题
0
蓝光币
101 枚
贡献
0 点
QQ
发表于 2018-12-25 08:28:34 | 显示全部楼层
谢谢分享!!!
回复

使用道具 举报

级别:群众演员 Lv.3

UID
8897
注册时间
2018-10-24
最后登录
2019-1-17
听众
2
收听
0
主题
0
蓝光币
66 枚
贡献
0 点
发表于 2018-12-25 10:07:39 | 显示全部楼层
楼主发贴辛苦了,谢谢楼主分享!我觉得中国高清电影网是注册对了!
回复

使用道具 举报

级别:专业龙套 Lv.4

UID
4064
注册时间
2018-5-27
最后登录
2019-1-13
听众
3
收听
0
主题
0
蓝光币
1 枚
贡献
0 点
发表于 6 天前 | 显示全部楼层
感谢分享!
回复

使用道具 举报

懒得打字嘛,点击右侧快捷回复 【右侧内容,后台自定义】
您需要登录后才可以回帖 登录 | 立即注册

本版积分规则

QQ|Archiver|手机版|小黑屋|中国高清网 |网站地图

GMT+8, 2019-1-17 13:20 , Processed in 0.177066 second(s), 42 queries .

Powered by HDchina X3.4

Copyright 2017-2018©HDchina.All right reserved

返回顶部 联系我们