你所知道的4K资源这里全部都有 4K电影 | 4K视频 | 4K壁纸 | 4K MV 怎么播放4K视频 | 4K电视演示片

教你玩转4K私人与家庭影院存储 NAS组装 | 黑群辉 家庭/影院Nas论坛

4K家庭影院信号源与视频设备知识 4K蓝光高清播放机 - 那个品牌好? 4K投影机论坛 | 4K电视机论坛

手把手教你搭建属于自己的家庭影院 4K家庭影院案例 | 家庭影院音频 4K家庭影院论坛

查看: 134|回复: 1

[剧情片] 白人男孩瑞克/白人男孩里克 White.Boy.Rick.2018.1080p.BluRay.REMUX.AVC.DTS-HD.MA.7.1-FGT 25.90GB

[复制链接]

 成长值: 1600

级别:资源管理组

注册时间
2017-10-20
最后登录
2019-6-18
听众
0
收听
0
主题
78715
蓝光币
27006 枚
贡献
3040 点
发表于 2018-12-22 21:20:12 | 显示全部楼层 |阅读模式

白人男孩瑞克/白人男孩里克 White.Boy.Rick.2018.1080p.BluRay.REMUX.AVC.DTS-HD.MA.7.1-FGT 25.90GB-1.jpg
◎译  名 白人男孩瑞克 / 白人男孩里克
◎片  名 白人男孩瑞克 White Boy Rick
◎年  代 2018
◎国  家 美国
◎类  别 剧情 / 犯罪
◎语  言 英语
◎上映日期 2018-08-31(特柳赖德电影节) / 2018-09-14(美国)
◎IMDb评分  6.5/10 from 5,424 users
◎IMDb链接  http://www.imdb.com/title/tt4537896/
◎豆瓣评分 5.7/10 from 122 users
◎豆瓣链接 https://movie.douban.com/subject/26704843/
◎片  长 110分钟
◎导  演 扬·德芒热
◎主  演 马修·麦康纳
      里奇·梅里特
      詹妮弗·杰森·李
      罗利·科奇瑞恩
      埃迪·马森
      派珀·劳瑞
      蓓尔·波利
      布鲁斯·邓恩
      布莱恩·泰里·亨利
      RJ·赛勒
      乔纳森·梅杰斯
      布拉德·卡特
      海蒂索兹蒙
      斯科特·康纳斯

◎简  介 

  上个天下80年月中期,年仅14岁的小理查德·沃舍成为了一位政府法律部分的线人,后来酿成一个首要的毒贩。这样的双面熟活,也让他与政府发生了磨擦,当有一天他被发现携有17磅的海洛因,而那时他刚刚17岁。他被投入牢狱,并被判处毕生禁锢,那末题目来了,他沉溺如此,当初让他做线人的联邦政府该负几多义务?


  1. Video
  2. ID                                       : 1
  3. Format                                   : AVC
  4. Format/Info                              : Advanced Video Codec
  5. Format profile                           : [url=/cdn-cgi/l/email-protection][email protected][/url]
  6. Format settings                          : CABAC / 2 Ref Frames
  7. Format settings, CABAC                   : Yes
  8. Format settings, ReFrames                : 2 frames
  9. Format settings, GOP                     : M=1, N=10
  10. Codec ID                                 : V_MPEG4/ISO/AVC
  11. Duration                                 : 1 h 51 min
  12. Bit rate mode                            : Variable
  13. Bit rate                                 : 24.9 Mb/s
  14. Width                                    : 1 920 pixels
  15. Height                                   : 1 080 pixels
  16. Display aspect ratio                     : 16:9
  17. Frame rate mode                          : Constant
  18. Frame rate                               : 23.976 (24000/1001) FPS
  19. Color space                              : YUV
  20. Chroma subsampling                       : 4:2:0
  21. Bit depth                                : 8 bits
  22. Scan type                                : Progressive
  23. Bits/(Pixel*Frame)                       : 0.502
  24. Stream size                              : 19.4 GiB (75%)
  25. Title                                    : White.Boy.Rick.2018.1080p.BluRay.REMUX.AVC.DTS-HD.MA.7.1-FGT
  26. Language                                 : English
  27. Default                                  : No
  28. Forced                                   : No

  29. Audio #1
  30. ID                                       : 2
  31. Format                                   : DTS XLL
  32. Format/Info                              : Digital Theater Systems
  33. Commercial name                          : DTS-HD Master Audio
  34. Codec ID                                 : A_DTS
  35. Duration                                 : 1 h 51 min
  36. Bit rate mode                            : Variable
  37. Bit rate                                 : 2 550 kb/s
  38. Channel(s)                               : 8 channels
  39. Channel layout                           : C L R LFE Lb Rb Lss Rss
  40. Sampling rate                            : 48.0 kHz
  41. Frame rate                               : 93.750 FPS (512 SPF)
  42. Bit depth                                : 16 bits
  43. Compression mode                         : Lossless
  44. Stream size                              : 1.98 GiB (8%)
  45. Title                                    : White.Boy.Rick.2018.1080p.BluRay.REMUX.AVC.DTS-HD.MA.7.1-FGT
  46. Language                                 : English
  47. Default                                  : Yes
  48. Forced                                   : No

  49. Audio #2
  50. ID                                       : 3
  51. Format                                   : DTS
  52. Format/Info                              : Digital Theater Systems
  53. Codec ID                                 : A_DTS
  54. Duration                                 : 1 h 51 min
  55. Bit rate mode                            : Constant
  56. Bit rate                                 : 1 509 kb/s
  57. Channel(s)                               : 6 channels
  58. Channel layout                           : C L R Ls Rs LFE
  59. Sampling rate                            : 48.0 kHz
  60. Frame rate                               : 93.750 FPS (512 SPF)
  61. Bit depth                                : 16 bits
  62. Compression mode                         : Lossy
  63. Stream size                              : 1.17 GiB (5%)
  64. Title                                    : White.Boy.Rick.2018.1080p.BluRay.REMUX.AVC.DTS-HD.MA.7.1-FGT
  65. Language                                 : English
  66. Default                                  : No
  67. Forced                                   : No

  68. Audio #3
  69. ID                                       : 4
  70. Format                                   : AC-3
  71. Format/Info                              : Audio Coding 3
  72. Commercial name                          : Dolby Digital
  73. Codec ID                                 : A_AC3
  74. Duration                                 : 1 h 51 min
  75. Bit rate mode                            : Constant
  76. Bit rate                                 : 640 kb/s
  77. Channel(s)                               : 6 channels
  78. Channel layout                           : L R C LFE Ls Rs
  79. Sampling rate                            : 48.0 kHz
  80. Frame rate                               : 31.250 FPS (1536 SPF)
  81. Bit depth                                : 16 bits
  82. Compression mode                         : Lossy
  83. Stream size                              : 509 MiB (2%)
  84. Title                                    : White.Boy.Rick.2018.1080p.BluRay.REMUX.AVC.DTS-HD.MA.7.1-FGT
  85. Language                                 : English
  86. Service kind                             : Complete Main
  87. Default                                  : No
  88. Forced                                   : No

  89. Audio #4
  90. ID                                       : 5
  91. Format                                   : DTS XLL
  92. Format/Info                              : Digital Theater Systems
  93. Commercial name                          : DTS-HD Master Audio
  94. Codec ID                                 : A_DTS
  95. Duration                                 : 1 h 51 min
  96. Bit rate mode                            : Variable
  97. Bit rate                                 : 2 135 kb/s
  98. Channel(s)                               : 6 channels
  99. Channel layout                           : C L R Ls Rs LFE
  100. Sampling rate                            : 48.0 kHz
  101. Frame rate                               : 93.750 FPS (512 SPF)
  102. Bit depth                                : 16 bits
  103. Compression mode                         : Lossless
  104. Stream size                              : 1.66 GiB (6%)
  105. Title                                    : White.Boy.Rick.2018.1080p.BluRay.REMUX.AVC.DTS-HD.MA.7.1-FGT
  106. Language                                 : French
  107. Default                                  : No
  108. Forced                                   : No

  109. Audio #5
  110. ID                                       : 6
  111. Format                                   : DTS
  112. Format/Info                              : Digital Theater Systems
  113. Codec ID                                 : A_DTS
  114. Duration                                 : 1 h 51 min
  115. Bit rate mode                            : Constant
  116. Bit rate                                 : 1 509 kb/s
  117. Channel(s)                               : 6 channels
  118. Channel layout                           : C L R Ls Rs LFE
  119. Sampling rate                            : 48.0 kHz
  120. Frame rate                               : 93.750 FPS (512 SPF)
  121. Bit depth                                : 16 bits
  122. Compression mode                         : Lossy
  123. Stream size                              : 1.17 GiB (5%)
  124. Title                                    : White.Boy.Rick.2018.1080p.BluRay.REMUX.AVC.DTS-HD.MA.7.1-FGT
  125. Language                                 : French
  126. Default                                  : No
  127. Forced                                   : No

  128. Text #1
  129. ID                                       : 7
  130. Format                                   : PGS
  131. Muxing mode                              : zlib
  132. Codec ID                                 : S_HDMV/PGS
  133. Codec ID/Info                            : Picture based subtitle format used on BDs/HD-DVDs
  134. Duration                                 : 1 h 44 min
  135. Bit rate                                 : 47.6 kb/s
  136. Count of elements                        : 3506
  137. Stream size                              : 35.4 MiB (0%)
  138. Title                                    : English-PGS
  139. Language                                 : English
  140. Default                                  : Yes
  141. Forced                                   : No

  142. Text #2
  143. ID                                       : 8
  144. Format                                   : PGS
  145. Muxing mode                              : zlib
  146. Codec ID                                 : S_HDMV/PGS
  147. Codec ID/Info                            : Picture based subtitle format used on BDs/HD-DVDs
  148. Duration                                 : 1 h 43 min
  149. Bit rate                                 : 40.9 kb/s
  150. Count of elements                        : 3058
  151. Stream size                              : 30.4 MiB (0%)
  152. Title                                    : English-SDH-PGS
  153. Language                                 : English
  154. Default                                  : No
  155. Forced                                   : No

  156. Text #3
  157. ID                                       : 9
  158. Format                                   : PGS
  159. Muxing mode                              : zlib
  160. Codec ID                                 : S_HDMV/PGS
  161. Codec ID/Info                            : Picture based subtitle format used on BDs/HD-DVDs
  162. Duration                                 : 1 h 49 min
  163. Bit rate                                 : 28.5 kb/s
  164. Count of elements                        : 2589
  165. Stream size                              : 22.3 MiB (0%)
  166. Title                                    : French-PGS
  167. Language                                 : French
  168. Default                                  : No
  169. Forced                                   : No

  170. Text #4
  171. ID                                       : 10
  172. Format                                   : PGS
  173. Muxing mode                              : zlib
  174. Codec ID                                 : S_HDMV/PGS
  175. Codec ID/Info                            : Picture based subtitle format used on BDs/HD-DVDs
  176. Duration                                 : 1 h 46 min
  177. Bit rate                                 : 830 b/s
  178. Count of elements                        : 56
  179. Stream size                              : 648 KiB (0%)
  180. Title                                    : French-FORCED-PGS
  181. Language                                 : French
  182. Default                                  : No
  183. Forced                                   : No

  184. Text #5
  185. ID                                       : 11
  186. Format                                   : PGS
  187. Muxing mode                              : zlib
  188. Codec ID                                 : S_HDMV/PGS
  189. Codec ID/Info                            : Picture based subtitle format used on BDs/HD-DVDs
  190. Duration                                 : 1 h 49 min
  191. Bit rate                                 : 31.4 kb/s
  192. Count of elements                        : 2574
  193. Stream size                              : 24.6 MiB (0%)
  194. Title                                    : Spanish-PGS
  195. Language                                 : Spanish
  196. Default                                  : No
  197. Forced                                   : No

  198. Menu
  199. 00:00:00.000                             : en:Chapter 01
  200. 00:02:44.831                             : en:Chapter 02
  201. 00:04:14.379                             : en:Chapter 03
  202. 00:05:18.484                             : en:Chapter 04
  203. 00:06:56.582                             : en:Chapter 05
  204. 00:08:22.460                             : en:Chapter 06
  205. 00:09:53.509                             : en:Chapter 07
  206. 00:11:29.188                             : en:Chapter 08
  207. 00:12:58.861                             : en:Chapter 09
  208. 00:14:28.784                             : en:Chapter 10
  209. 00:16:05.255                             : en:Chapter 11
  210. 00:17:37.681                             : en:Chapter 12
  211. 00:19:08.105                             : en:Chapter 13
  212. 00:20:39.905                             : en:Chapter 14
  213. 00:22:12.039                             : en:Chapter 15
  214. 00:24:12.784                             : en:Chapter 16
  215. 00:26:16.950                             : en:Chapter 17
  216. 00:28:10.939                             : en:Chapter 18
  217. 00:30:15.313                             : en:Chapter 19
  218. 00:32:12.764                             : en:Chapter 20
  219. 00:34:06.711                             : en:Chapter 21
  220. 00:35:45.101                             : en:Chapter 22
  221. 00:37:15.274                             : en:Chapter 23
  222. 00:38:44.864                             : en:Chapter 24
  223. 00:40:16.705                             : en:Chapter 25
  224. 00:41:47.004                             : en:Chapter 26
  225. 00:43:16.510                             : en:Chapter 27
  226. 00:44:51.522                             : en:Chapter 28
  227. 00:46:22.696                             : en:Chapter 29
  228. 00:47:53.120                             : en:Chapter 30
  229. 00:49:25.295                             : en:Chapter 31
  230. 00:50:56.053                             : en:Chapter 32
  231. 00:52:27.602                             : en:Chapter 33
  232. 00:55:30.035                             : en:Chapter 34
  233. 00:57:01.584                             : en:Chapter 35
  234. 00:58:33.134                             : en:Chapter 36
  235. 01:00:04.058                             : en:Chapter 37
  236. 01:01:37.151                             : en:Chapter 38
  237. 01:03:07.909                             : en:Chapter 39
  238. 01:06:07.338                             : en:Chapter 40
  239. 01:07:38.137                             : en:Chapter 41
  240. 01:09:36.088                             : en:Chapter 42
  241. 01:11:36.333                             : en:Chapter 43
  242. 01:13:35.828                             : en:Chapter 44
  243. 01:15:36.156                             : en:Chapter 45
  244. 01:16:44.808                             : en:Chapter 46
  245. 01:18:46.263                             : en:Chapter 47
  246. 01:20:37.749                             : en:Chapter 48
  247. 01:22:37.160                             : en:Chapter 49
  248. 01:24:38.573                             : en:Chapter 50
  249. 01:26:41.112                             : en:Chapter 51
  250. 01:28:42.066                             : en:Chapter 52
  251. 01:30:42.645                             : en:Chapter 53
  252. 01:32:45.184                             : en:Chapter 54
  253. 01:34:46.222                             : en:Chapter 55
  254. 01:36:46.675                             : en:Chapter 56
  255. 01:38:49.965                             : en:Chapter 57
  256. 01:40:50.294                             : en:Chapter 58
  257. 01:42:51.832                             : en:Chapter 59
  258. 01:44:33.642                             : en:Chapter 60
复制代码

复制代码

白人男孩瑞克/白人男孩里克 White.Boy.Rick.2018.1080p.BluRay.REMUX.AVC.DTS-HD.MA.7.1-FGT 25.90GB-2.png 白人男孩瑞克/白人男孩里克 White.Boy.Rick.2018.1080p.BluRay.REMUX.AVC.DTS-HD.MA.7.1-FGT 25.90GB-3.png 白人男孩瑞克/白人男孩里克 White.Boy.Rick.2018.1080p.BluRay.REMUX.AVC.DTS-HD.MA.7.1-FGT 25.90GB-4.png



回复

使用道具 举报

级别:荣升主角 Lv.5

注册时间
2018-5-27
最后登录
2019-6-18
听众
9
收听
0
主题
0
蓝光币
121 枚
贡献
0 点
发表于 2019-1-11 20:50:15 | 显示全部楼层
感谢分享!
回复

使用道具 举报

*滑动验证:
懒得打字嘛,点击右侧快捷回复 【右侧内容,后台自定义】
您需要登录后才可以回帖 登录 | 立即注册

本版积分规则

QQ|Archiver|手机版|小黑屋| 中国高清网 |网站地图

GMT+8, 2019-6-18 19:52 , Processed in 0.238759 second(s), 44 queries .

Powered by HDchina X3.4

Copyright 2017-2019©HDchina.All right reserved

返回顶部 联系我们