你所知道的4K资源这里全部都有 4K电影 | 4K视频 | 4K壁纸 | 4K MV 怎么播放4K视频 | 4K电视演示片

教你玩转4K私人与家庭影院存储 NAS组装 | 黑群辉 家庭/影院Nas论坛

4K家庭影院信号源与视频设备知识 4K蓝光高清播放机 - 那个品牌好? 4K投影机论坛 | 4K电视机论坛

手把手教你搭建属于自己的家庭影院 4K家庭影院案例 | 家庭影院音频 4K家庭影院论坛

查看: 49|回复: 1

[剧情片] 一生/生命中的美好意外 Life.Itself.2018.1080p.BluRay.REMUX.AVC.TrueHD.5.1-FGT 30.36GB

[复制链接]

 成长值: 70

级别:资源管理组

UID
1
注册时间
2017-10-20
最后登录
2019-1-17
听众
0
收听
0
主题
73857
蓝光币
114328 枚
贡献
143666 点
发表于 2018-12-20 14:07:58 | 显示全部楼层 |阅读模式

平生/生射中的美美意外 Life.Itself.2018.1080p.BluRay.REMUX.AVC.TrueHD.5.1-FGT 30.36GB-1.jpg
◎译  名 平生 / 生射中的美美意外(台) / 生活自己 / 人生如戏
◎片  名 平生 Life Itself
◎年  代 2018
◎国  家 美国
◎类  别 剧情 / 恋爱
◎语  言 英语
◎上映日期 2018-09-08(多伦多电影节) / 2018-09-21(美国)
◎IMDb评分  5.9/10 from 2,412 users
◎IMDb链接  http://www.imdb.com/title/tt5989218/
◎豆瓣评分 6.3/10 from 116 users
◎豆瓣链接 https://movie.douban.com/subject/26908287/
◎片  长 无片长信息
◎导  演 丹·福格尔曼
◎主  演 奥利维亚·库克
      奥斯卡·伊萨克
      奥利维亚·王尔德
      塞缪尔·杰克逊
      安东尼奥·班德拉斯
      凯特琳·卡迈克尔
      莱娅·科斯塔
      曼迪·帕廷金
      安妮特·贝宁
      杰克·罗宾森
      Isabel Durant
      费尔南达·安德拉德
      塞尔吉奥·佩里斯-门切塔
      阿莱克斯·莫尔纳
      卢克·朱迪
      费斯·洛根

◎简  介 

  奥斯卡·伊萨克将出演新片《平生》(Life Itself,暂译),导演丹·福格尔曼负责编剧、执导,2017年春季起头建造。布景在纽约的西班牙郊区,奥斯卡·伊萨克饰演的脚色将串联起几代人的恋爱故事。


  1. Video
  2. ID                                       : 1
  3. Format                                   : AVC
  4. Format/Info                              : Advanced Video Codec
  5. Format profile                           : [url=/cdn-cgi/l/email-protection][email protected][/url]
  6. Format settings                          : CABAC / 4 Ref Frames
  7. Format settings, CABAC                   : Yes
  8. Format settings, ReFrames                : 4 frames
  9. Codec ID                                 : V_MPEG4/ISO/AVC
  10. Duration                                 : 1 h 57 min
  11. Bit rate mode                            : Variable
  12. Bit rate                                 : 30.2 Mb/s
  13. Maximum bit rate                         : 35.0 Mb/s
  14. Width                                    : 1 920 pixels
  15. Height                                   : 1 080 pixels
  16. Display aspect ratio                     : 16:9
  17. Frame rate mode                          : Constant
  18. Frame rate                               : 23.976 (24000/1001) FPS
  19. Standard                                 : NTSC
  20. Color space                              : YUV
  21. Chroma subsampling                       : 4:2:0
  22. Bit depth                                : 8 bits
  23. Scan type                                : Progressive
  24. Bits/(Pixel*Frame)                       : 0.607
  25. Stream size                              : 24.8 GiB (82%)
  26. Title                                    : Life.Itself.2018.1080p.BluRay.REMUX.AVC.TrueHD.5.1-FGT
  27. Language                                 : English
  28. Default                                  : No
  29. Forced                                   : No
  30. Color range                              : Limited
  31. Color primaries                          : BT.709
  32. Transfer characteristics                 : BT.709
  33. Matrix coefficients                      : BT.709

  34. Audio #1
  35. ID                                       : 2
  36. Format                                   : MLP FBA
  37. Format/Info                              : Meridian Lossless Packing FBA
  38. Commercial name                          : Dolby TrueHD
  39. Codec ID                                 : A_TRUEHD
  40. Duration                                 : 1 h 57 min
  41. Bit rate mode                            : Variable
  42. Bit rate                                 : 2 722 kb/s
  43. Maximum bit rate                         : 5 229 kb/s
  44. Channel(s)                               : 6 channels
  45. Channel layout                           : L R C LFE Ls Rs
  46. Sampling rate                            : 48.0 kHz
  47. Frame rate                               : 1 200.000 FPS (40 SPF)
  48. Compression mode                         : Lossless
  49. Stream size                              : 2.23 GiB (7%)
  50. Title                                    : Life.Itself.2018.1080p.BluRay.REMUX.AVC.TrueHD.5.1-FGT
  51. Language                                 : English
  52. Default                                  : Yes
  53. Forced                                   : No

  54. Audio #2
  55. ID                                       : 3
  56. Format                                   : AC-3
  57. Format/Info                              : Audio Coding 3
  58. Commercial name                          : Dolby Digital
  59. Codec ID                                 : A_AC3
  60. Duration                                 : 1 h 57 min
  61. Bit rate mode                            : Constant
  62. Bit rate                                 : 640 kb/s
  63. Channel(s)                               : 6 channels
  64. Channel layout                           : L R C LFE Ls Rs
  65. Sampling rate                            : 48.0 kHz
  66. Frame rate                               : 31.250 FPS (1536 SPF)
  67. Bit depth                                : 16 bits
  68. Compression mode                         : Lossy
  69. Stream size                              : 538 MiB (2%)
  70. Title                                    : Life.Itself.2018.1080p.BluRay.REMUX.AVC.TrueHD.5.1-FGT
  71. Language                                 : English
  72. Service kind                             : Complete Main
  73. Default                                  : No
  74. Forced                                   : No

  75. Audio #3
  76. ID                                       : 4
  77. Format                                   : MLP FBA
  78. Format/Info                              : Meridian Lossless Packing FBA
  79. Commercial name                          : Dolby TrueHD
  80. Codec ID                                 : A_TRUEHD
  81. Duration                                 : 1 h 57 min
  82. Bit rate mode                            : Variable
  83. Bit rate                                 : 2 656 kb/s
  84. Maximum bit rate                         : 4 956 kb/s
  85. Channel(s)                               : 6 channels
  86. Channel layout                           : L R C LFE Ls Rs
  87. Sampling rate                            : 48.0 kHz
  88. Frame rate                               : 1 200.000 FPS (40 SPF)
  89. Compression mode                         : Lossless
  90. Stream size                              : 2.18 GiB (7%)
  91. Title                                    : Life.Itself.2018.1080p.BluRay.REMUX.AVC.TrueHD.5.1-FGT
  92. Language                                 : French
  93. Default                                  : No
  94. Forced                                   : No

  95. Audio #4
  96. ID                                       : 5
  97. Format                                   : AC-3
  98. Format/Info                              : Audio Coding 3
  99. Commercial name                          : Dolby Digital
  100. Codec ID                                 : A_AC3
  101. Duration                                 : 1 h 57 min
  102. Bit rate mode                            : Constant
  103. Bit rate                                 : 640 kb/s
  104. Channel(s)                               : 6 channels
  105. Channel layout                           : L R C LFE Ls Rs
  106. Sampling rate                            : 48.0 kHz
  107. Frame rate                               : 31.250 FPS (1536 SPF)
  108. Bit depth                                : 16 bits
  109. Compression mode                         : Lossy
  110. Stream size                              : 538 MiB (2%)
  111. Title                                    : Life.Itself.2018.1080p.BluRay.REMUX.AVC.TrueHD.5.1-FGT
  112. Language                                 : French
  113. Service kind                             : Complete Main
  114. Default                                  : No
  115. Forced                                   : No

  116. Text #1
  117. ID                                       : 6
  118. Format                                   : PGS
  119. Muxing mode                              : zlib
  120. Codec ID                                 : S_HDMV/PGS
  121. Codec ID/Info                            : Picture based subtitle format used on BDs/HD-DVDs
  122. Duration                                 : 1 h 49 min
  123. Bit rate                                 : 32.7 kb/s
  124. Count of elements                        : 4048
  125. Stream size                              : 25.6 MiB (0%)
  126. Title                                    : English-PGS
  127. Language                                 : English
  128. Default                                  : Yes
  129. Forced                                   : No

  130. Text #2
  131. ID                                       : 7
  132. Format                                   : PGS
  133. Muxing mode                              : zlib
  134. Codec ID                                 : S_HDMV/PGS
  135. Codec ID/Info                            : Picture based subtitle format used on BDs/HD-DVDs
  136. Duration                                 : 46 min 25 s
  137. Bit rate                                 : 13.5 kb/s
  138. Count of elements                        : 870
  139. Stream size                              : 4.47 MiB (0%)
  140. Title                                    : English-PGS
  141. Language                                 : English
  142. Default                                  : No
  143. Forced                                   : No

  144. Text #3
  145. ID                                       : 8
  146. Format                                   : PGS
  147. Muxing mode                              : zlib
  148. Codec ID                                 : S_HDMV/PGS
  149. Codec ID/Info                            : Picture based subtitle format used on BDs/HD-DVDs
  150. Duration                                 : 1 h 56 min
  151. Bit rate                                 : 32.7 kb/s
  152. Count of elements                        : 3956
  153. Stream size                              : 27.2 MiB (0%)
  154. Title                                    : French-PGS
  155. Language                                 : French
  156. Default                                  : No
  157. Forced                                   : No

  158. Text #4
  159. ID                                       : 9
  160. Format                                   : PGS
  161. Muxing mode                              : zlib
  162. Codec ID                                 : S_HDMV/PGS
  163. Codec ID/Info                            : Picture based subtitle format used on BDs/HD-DVDs
  164. Duration                                 : 1 h 48 min
  165. Bit rate                                 : 297 b/s
  166. Count of elements                        : 28
  167. Stream size                              : 236 KiB (0%)
  168. Title                                    : French-FORCED-PGS
  169. Language                                 : French
  170. Default                                  : No
  171. Forced                                   : No

  172. Menu
  173. 00:00:00.000                             : en:Chapter 01
  174. 00:16:06.465                             : en:Chapter 02
  175. 00:31:07.031                             : en:Chapter 03
  176. 00:41:31.947                             : en:Chapter 04
  177. 00:54:06.451                             : en:Chapter 05
  178. 01:16:33.630                             : en:Chapter 06
  179. 01:34:59.026                             : en:Chapter 07
  180. 01:49:20.720                             : en:Chapter 08
复制代码

复制代码

平生/生射中的美美意外 Life.Itself.2018.1080p.BluRay.REMUX.AVC.TrueHD.5.1-FGT 30.36GB-2.png 平生/生射中的美美意外 Life.Itself.2018.1080p.BluRay.REMUX.AVC.TrueHD.5.1-FGT 30.36GB-3.png 平生/生射中的美美意外 Life.Itself.2018.1080p.BluRay.REMUX.AVC.TrueHD.5.1-FGT 30.36GB-4.png





回复

使用道具 举报

级别:专业龙套 Lv.4

UID
4064
注册时间
2018-5-27
最后登录
2019-1-13
听众
3
收听
0
主题
0
蓝光币
1 枚
贡献
0 点
发表于 6 天前 | 显示全部楼层
感谢分享!
回复

使用道具 举报

懒得打字嘛,点击右侧快捷回复 【右侧内容,后台自定义】
您需要登录后才可以回帖 登录 | 立即注册

本版积分规则

QQ|Archiver|手机版|小黑屋|中国高清网 |网站地图

GMT+8, 2019-1-17 12:30 , Processed in 0.154564 second(s), 41 queries .

Powered by HDchina X3.4

Copyright 2017-2018©HDchina.All right reserved

返回顶部 联系我们