你所知道的4K资源这里全部都有 4K电影 | 4K视频 | 4K壁纸 | 4K MV 怎么播放4K视频 | 4K电视演示片

教你玩转4K私人与家庭影院存储 NAS组装 | 黑群辉 家庭/影院Nas论坛

4K家庭影院信号源与视频设备知识 4K蓝光高清播放机 - 那个品牌好? 4K投影机论坛 | 4K电视机论坛

手把手教你搭建属于自己的家庭影院 4K家庭影院案例 | 家庭影院音频 4K家庭影院论坛

查看: 87|回复: 4

[剧情片] 错误教育/性教獄 The.Miseducation.of.Cameron.Post.2018.1080p.BluRay.REMUX.AVC.DD5.1-FGT 18.52GB

[复制链接]

 成长值: 70

级别:资源管理组

UID
1
注册时间
2017-10-20
最后登录
2019-1-17
听众
0
收听
0
主题
73857
蓝光币
114350 枚
贡献
143666 点
发表于 2018-12-20 14:07:03 | 显示全部楼层 |阅读模式

毛病教育/性教獄 The.Miseducation.of.Cameron.Post.2018.1080p.BluRay.REMUX.AVC.DD5.1-FGT 18.52GB-1.jpg
◎译  名 毛病教育 / 性教獄(港) / 她的毛病教育(台) / 卡梅伦的毛病教育
◎片  名 毛病教育 The Miseducation of Cameron Post
◎年  代 2018
◎国  家 美国
◎类  别 剧情 / 同性
◎语  言 英语
◎上映日期 2018-01-16(圣丹斯电影节) / 2018-08-03(美国)
◎IMDb评分  6.7/10 from 6,903 users
◎IMDb链接  http://www.imdb.com/title/tt6257174/
◎豆瓣评分 6.7/10 from 2634 users
◎豆瓣链接 https://movie.douban.com/subject/26917393/
◎片  长 91分钟
◎导  演 戴思睿·阿卡万
◎主  演 科洛·莫瑞兹
      萨莎·莱恩
      詹妮弗·艾莉
      小约翰·加拉赫
      福勒斯特·古德勒克
      奎恩·谢法德
      斯宾塞·李斯特
      艾米莉· 斯凯格斯
      艾萨克·吉·索尔斯坦

◎简  介 

  “超杀女”科洛·莫瑞兹携手萨莎·莱恩参演《卡梅伦的毛病教育》(The Miseducation of Cameron Post,暂译),戴思睿·阿卡万自编自导。影片按照艾米丽·丹弗斯的同名小说改编,报告同性恋少女卡梅伦(莫瑞兹饰)的长大过程。青春本疼痛,而挫折历练却让卡梅伦不竭长大。

◎获奖情况 

  第34届圣丹斯电影节 (2018)
  评审团大奖 剧情片


  1. Video
  2. ID                                       : 1
  3. Format                                   : AVC
  4. Format/Info                              : Advanced Video Codec
  5. Format profile                           : [url=/cdn-cgi/l/email-protection][email protected][/url]
  6. Format settings                          : CABAC / 3 Ref Frames
  7. Format settings, CABAC                   : Yes
  8. Format settings, ReFrames                : 3 frames
  9. Format settings, GOP                     : M=3, N=12
  10. Codec ID                                 : V_MPEG4/ISO/AVC
  11. Duration                                 : 1 h 31 min
  12. Bit rate mode                            : Variable
  13. Bit rate                                 : 28.3 Mb/s
  14. Maximum bit rate                         : 35.0 Mb/s
  15. Width                                    : 1 920 pixels
  16. Height                                   : 1 080 pixels
  17. Display aspect ratio                     : 16:9
  18. Frame rate mode                          : Constant
  19. Frame rate                               : 23.976 (24000/1001) FPS
  20. Standard                                 : NTSC
  21. Color space                              : YUV
  22. Chroma subsampling                       : 4:2:0
  23. Bit depth                                : 8 bits
  24. Scan type                                : Progressive
  25. Bits/(Pixel*Frame)                       : 0.569
  26. Stream size                              : 18.1 GiB (98%)
  27. Title                                    : The.Miseducation.of.Cameron.Post.2018.1080p.BluRay.REMUX.AVC.DD5.1-FGT
  28. Language                                 : English
  29. Default                                  : No
  30. Forced                                   : No
  31. Color range                              : Limited
  32. Color primaries                          : BT.709
  33. Transfer characteristics                 : BT.709
  34. Matrix coefficients                      : BT.709

  35. Audio #1
  36. ID                                       : 2
  37. Format                                   : AC-3
  38. Format/Info                              : Audio Coding 3
  39. Commercial name                          : Dolby Digital
  40. Codec ID                                 : A_AC3
  41. Duration                                 : 1 h 31 min
  42. Bit rate mode                            : Constant
  43. Bit rate                                 : 448 kb/s
  44. Channel(s)                               : 6 channels
  45. Channel layout                           : L R C LFE Ls Rs
  46. Sampling rate                            : 48.0 kHz
  47. Frame rate                               : 31.250 FPS (1536 SPF)
  48. Bit depth                                : 16 bits
  49. Compression mode                         : Lossy
  50. Stream size                              : 294 MiB (2%)
  51. Title                                    : The.Miseducation.of.Cameron.Post.2018.1080p.BluRay.REMUX.AVC.DD5.1-FGT
  52. Language                                 : English
  53. Service kind                             : Complete Main
  54. Default                                  : Yes
  55. Forced                                   : No

  56. Audio #2
  57. ID                                       : 3
  58. Format                                   : AC-3
  59. Format/Info                              : Audio Coding 3
  60. Commercial name                          : Dolby Digital
  61. Codec ID                                 : A_AC3
  62. Duration                                 : 1 h 31 min
  63. Bit rate mode                            : Constant
  64. Bit rate                                 : 192 kb/s
  65. Channel(s)                               : 2 channels
  66. Channel layout                           : L R
  67. Sampling rate                            : 48.0 kHz
  68. Frame rate                               : 31.250 FPS (1536 SPF)
  69. Bit depth                                : 16 bits
  70. Compression mode                         : Lossy
  71. Stream size                              : 126 MiB (1%)
  72. Title                                    : The.Miseducation.of.Cameron.Post.2018.1080p.BluRay.REMUX.AVC.DD5.1-FGT
  73. Language                                 : English
  74. Service kind                             : Complete Main
  75. Default                                  : No
  76. Forced                                   : No

  77. Text
  78. ID                                       : 4
  79. Format                                   : PGS
  80. Muxing mode                              : zlib
  81. Codec ID                                 : S_HDMV/PGS
  82. Codec ID/Info                            : Picture based subtitle format used on BDs/HD-DVDs
  83. Duration                                 : 1 h 31 min
  84. Bit rate                                 : 28.6 kb/s
  85. Count of elements                        : 2677
  86. Stream size                              : 18.7 MiB (0%)
  87. Title                                    : English-PGS
  88. Language                                 : English
  89. Default                                  : Yes
  90. Forced                                   : No

  91. Menu
  92. 00:00:00.000                             : en:Chapter 01
  93. 00:07:10.263                             : en:Chapter 02
  94. 00:17:17.036                             : en:Chapter 03
  95. 00:26:36.678                             : en:Chapter 04
  96. 00:34:57.136                             : en:Chapter 05
  97. 00:45:14.545                             : en:Chapter 06
  98. 00:55:31.161                             : en:Chapter 07
  99. 01:03:33.518                             : en:Chapter 08
  100. 01:14:28.255                             : en:Chapter 09
  101. 01:26:40.862                             : en:Chapter 10
复制代码

复制代码

毛病教育/性教獄 The.Miseducation.of.Cameron.Post.2018.1080p.BluRay.REMUX.AVC.DD5.1-FGT 18.52GB-2.png 毛病教育/性教獄 The.Miseducation.of.Cameron.Post.2018.1080p.BluRay.REMUX.AVC.DD5.1-FGT 18.52GB-3.png 毛病教育/性教獄 The.Miseducation.of.Cameron.Post.2018.1080p.BluRay.REMUX.AVC.DD5.1-FGT 18.52GB-4.png





回复

使用道具 举报

级别:禁止发言

UID
1196
注册时间
2018-2-11
最后登录
2019-1-16
听众
2
收听
0
主题
0
蓝光币
34 枚
贡献
0 点
QQ
发表于 2018-12-22 01:08:48 | 显示全部楼层
提示: 作者被禁止或删除 内容自动屏蔽
回复

使用道具 举报

级别:普通观众 Lv.2

UID
12376
注册时间
2018-12-18
最后登录
2019-1-17
听众
0
收听
0
主题
0
蓝光币
78 枚
贡献
0 点
QQ
发表于 2018-12-26 10:40:52 | 显示全部楼层

楼主太厉害了!楼主,电影应该很好看我觉得中国高清电影网真是个好地方!
回复

使用道具 举报

级别:普通观众 Lv.2

UID
12587
注册时间
2018-12-21
最后登录
2019-1-8
听众
0
收听
0
主题
0
蓝光币
2 枚
贡献
0 点
发表于 2018-12-26 11:34:12 | 显示全部楼层

我看不错噢 谢谢楼主
回复

使用道具 举报

级别:专业龙套 Lv.4

UID
4064
注册时间
2018-5-27
最后登录
2019-1-13
听众
3
收听
0
主题
0
蓝光币
1 枚
贡献
0 点
发表于 6 天前 | 显示全部楼层
感谢分享!
回复

使用道具 举报

懒得打字嘛,点击右侧快捷回复 【右侧内容,后台自定义】
您需要登录后才可以回帖 登录 | 立即注册

本版积分规则

QQ|Archiver|手机版|小黑屋|中国高清网 |网站地图

GMT+8, 2019-1-17 13:34 , Processed in 0.142288 second(s), 42 queries .

Powered by HDchina X3.4

Copyright 2017-2018©HDchina.All right reserved

返回顶部 联系我们