你所知道的4K资源这里全部都有 4K电影 | 4K视频 | 4K壁纸 | 4K MV 怎么播放4K视频 | 4K电视演示片

教你玩转4K私人与家庭影院存储 NAS组装 | 黑群辉 家庭/影院Nas论坛

4K家庭影院信号源与视频设备知识 4K蓝光高清播放机 - 那个品牌好? 4K投影机论坛 | 4K电视机论坛

手把手教你搭建属于自己的家庭影院 4K家庭影院案例 | 家庭影院音频 4K家庭影院论坛

查看: 96|回复: 1

[喜剧片] 黑衣女人 Ladies.in.Black.2018.1080p.BluRay.REMUX.AVC.DTS-HD.MA.5.1-FGT 20.25GB

[复制链接]

 成长值: 710

级别:资源管理组

注册时间
2017-10-20
最后登录
2019-3-22
听众
0
收听
0
主题
76497
蓝光币
134729 枚
贡献
146306 点
发表于 2018-12-17 22:48:16 | 显示全部楼层 |阅读模式

黑衣女人 Ladies.in.Black.2018.1080p.BluRay.REMUX.AVC.DTS-HD.MA.5.1-FGT 20.25GB-1.jpg
◎译  名 黑衣女人
◎片  名 黑衣女人 Ladies in Black
◎年  代 2018
◎国  家 澳大利亚
◎类  别 笑剧
◎语  言 英语
◎上映日期 2018-10-18(澳大利亚)
◎IMDb评分  7.3/10 from 573 users
◎IMDb链接  http://www.imdb.com/title/tt6684884/
◎豆瓣评分 今朝无人评价
◎豆瓣链接 https://movie.douban.com/subject/27002092/
◎片  长 无片长信息
◎导  演 布鲁斯·贝尔斯福德
◎主  演 瑞切尔·泰勒
      朱莉娅·奥蒙德
      安格瑞·赖斯
      尼古拉斯·哈蒙德
      瑞安·柯尔
      文森特·佩雷斯
      诺妮·哈泽赫斯
      卢克·佩格勒
      苏茜·波特
      肖恩·雅克博森
      德博拉·肯尼迪
      吉娜维夫·莱蒙
      Celia Massingham
      Emily De Margheriti
      Alison McGirr

◎简  介 

  按照Madeleine St John所著同名畅销小说改编,设定在1959年的悉尼夏日,在澳大利亚的文化醒觉、阶级结构崩溃和妇女束缚的布景下,报告郊区女门生丽莎的长大故事。丽莎在期待高考绩就、胡想着去悉尼大学时,在一家大型百货商铺打暑期工,与一群女售货员并肩工作,在此时代翻开了眼界,也发生了演变。


  1. Video
  2. ID                                       : 1
  3. Format                                   : AVC
  4. Format/Info                              : Advanced Video Codec
  5. Format profile                           : [url=/cdn-cgi/l/email-protection][email protected][/url]
  6. Format settings                          : CABAC / 4 Ref Frames
  7. Format settings, CABAC                   : Yes
  8. Format settings, ReFrames                : 4 frames
  9. Codec ID                                 : V_MPEG4/ISO/AVC
  10. Duration                                 : 1 h 49 min
  11. Bit rate mode                            : Variable
  12. Bit rate                                 : 22.5 Mb/s
  13. Maximum bit rate                         : 38.0 Mb/s
  14. Width                                    : 1 920 pixels
  15. Height                                   : 1 080 pixels
  16. Display aspect ratio                     : 16:9
  17. Frame rate mode                          : Constant
  18. Frame rate                               : 23.976 (24000/1001) FPS
  19. Color space                              : YUV
  20. Chroma subsampling                       : 4:2:0
  21. Bit depth                                : 8 bits
  22. Scan type                                : Progressive
  23. Bits/(Pixel*Frame)                       : 0.453
  24. Stream size                              : 17.2 GiB (85%)
  25. Title                                    : Ladies.in.Black.2018.1080p.BluRay.REMUX.AVC.DTS-HD.MA.5.1-FGT
  26. Language                                 : English
  27. Default                                  : No
  28. Forced                                   : No

  29. Audio #1
  30. ID                                       : 2
  31. Format                                   : DTS XLL
  32. Format/Info                              : Digital Theater Systems
  33. Commercial name                          : DTS-HD Master Audio
  34. Codec ID                                 : A_DTS
  35. Duration                                 : 1 h 49 min
  36. Bit rate mode                            : Variable
  37. Bit rate                                 : 1 865 kb/s
  38. Channel(s)                               : 6 channels
  39. Channel layout                           : C L R Ls Rs LFE
  40. Sampling rate                            : 48.0 kHz
  41. Frame rate                               : 93.750 FPS (512 SPF)
  42. Bit depth                                : 16 bits
  43. Compression mode                         : Lossless
  44. Stream size                              : 1.42 GiB (7%)
  45. Title                                    : Ladies.in.Black.2018.1080p.BluRay.REMUX.AVC.DTS-HD.MA.5.1-FGT
  46. Language                                 : English
  47. Default                                  : Yes
  48. Forced                                   : No

  49. Audio #2
  50. ID                                       : 3
  51. Format                                   : DTS
  52. Format/Info                              : Digital Theater Systems
  53. Codec ID                                 : A_DTS
  54. Duration                                 : 1 h 49 min
  55. Bit rate mode                            : Constant
  56. Bit rate                                 : 1 509 kb/s
  57. Channel(s)                               : 6 channels
  58. Channel layout                           : C L R Ls Rs LFE
  59. Sampling rate                            : 48.0 kHz
  60. Frame rate                               : 93.750 FPS (512 SPF)
  61. Bit depth                                : 16 bits
  62. Compression mode                         : Lossy
  63. Stream size                              : 1.15 GiB (6%)
  64. Title                                    : Ladies.in.Black.2018.1080p.BluRay.REMUX.AVC.DTS-HD.MA.5.1-FGT
  65. Language                                 : English
  66. Default                                  : No
  67. Forced                                   : No

  68. Audio #3
  69. ID                                       : 4
  70. Format                                   : AC-3
  71. Format/Info                              : Audio Coding 3
  72. Commercial name                          : Dolby Digital
  73. Codec ID                                 : A_AC3
  74. Duration                                 : 1 h 49 min
  75. Bit rate mode                            : Constant
  76. Bit rate                                 : 640 kb/s
  77. Channel(s)                               : 6 channels
  78. Channel layout                           : L R C LFE Ls Rs
  79. Sampling rate                            : 48.0 kHz
  80. Frame rate                               : 31.250 FPS (1536 SPF)
  81. Bit depth                                : 16 bits
  82. Compression mode                         : Lossy
  83. Stream size                              : 499 MiB (2%)
  84. Title                                    : Ladies.in.Black.2018.1080p.BluRay.REMUX.AVC.DTS-HD.MA.5.1-FGT
  85. Language                                 : English
  86. Service kind                             : Complete Main
  87. Default                                  : No
  88. Forced                                   : No

  89. Text
  90. ID                                       : 5
  91. Format                                   : PGS
  92. Muxing mode                              : zlib
  93. Codec ID                                 : S_HDMV/PGS
  94. Codec ID/Info                            : Picture based subtitle format used on BDs/HD-DVDs
  95. Duration                                 : 1 h 43 min
  96. Bit rate                                 : 26.1 kb/s
  97. Count of elements                        : 3214
  98. Stream size                              : 19.4 MiB (0%)
  99. Title                                    : English-PGS
  100. Language                                 : English
  101. Default                                  : Yes
  102. Forced                                   : No

  103. Menu
  104. 00:00:00.000                             : en:Chapter 01
  105. 00:06:04.989                             : en:Chapter 02
  106. 00:11:14.548                             : en:Chapter 03
  107. 00:17:48.108                             : en:Chapter 04
  108. 00:25:14.429                             : en:Chapter 05
  109. 00:31:10.994                             : en:Chapter 06
  110. 00:38:33.686                             : en:Chapter 07
  111. 00:45:44.116                             : en:Chapter 08
  112. 00:51:56.238                             : en:Chapter 09
  113. 00:59:45.957                             : en:Chapter 10
  114. 01:04:09.762                             : en:Chapter 11
  115. 01:07:56.739                             : en:Chapter 12
  116. 01:13:45.129                             : en:Chapter 13
  117. 01:18:11.228                             : en:Chapter 14
  118. 01:25:05.725                             : en:Chapter 15
  119. 01:29:27.362                             : en:Chapter 16
  120. 01:35:10.162                             : en:Chapter 17
  121. 01:41:15.736                             : en:Chapter 18
复制代码

复制代码

黑衣女人 Ladies.in.Black.2018.1080p.BluRay.REMUX.AVC.DTS-HD.MA.5.1-FGT 20.25GB-2.png 黑衣女人 Ladies.in.Black.2018.1080p.BluRay.REMUX.AVC.DTS-HD.MA.5.1-FGT 20.25GB-3.png 黑衣女人 Ladies.in.Black.2018.1080p.BluRay.REMUX.AVC.DTS-HD.MA.5.1-FGT 20.25GB-4.png





回复

使用道具 举报

级别:荣升主角 Lv.5

注册时间
2018-5-27
最后登录
2019-3-21
听众
4
收听
0
主题
0
蓝光币
17 枚
贡献
0 点
发表于 2019-1-11 20:48:37 | 显示全部楼层
感谢分享!
回复

使用道具 举报

懒得打字嘛,点击右侧快捷回复 【右侧内容,后台自定义】
您需要登录后才可以回帖 登录 | 立即注册

本版积分规则

QQ|Archiver|手机版|小黑屋|中国高清网 |网站地图

GMT+8, 2019-3-22 09:51 , Processed in 0.163601 second(s), 41 queries .

Powered by HDchina X3.4

Copyright 2017-2018©HDchina.All right reserved

返回顶部 联系我们