你所知道的4K资源这里全部都有 4K电影 | 4K视频 | 4K壁纸 | 4K MV 怎么播放4K视频 | 4K电视演示片

教你玩转4K私人与家庭影院存储 NAS组装 | 黑群辉 家庭/影院Nas论坛

4K家庭影院信号源与视频设备知识 4K蓝光高清播放机 - 那个品牌好? 4K投影机论坛 | 4K电视机论坛

手把手教你搭建属于自己的家庭影院 4K家庭影院案例 | 家庭影院音频 4K家庭影院论坛

查看: 124|回复: 9

[喜剧片] 憨豆特工3/凸槌特派员3 Johnny.English.Strikes.Again.2018.1080p.BluRay.REMUX.AVC.DTS-X.7.1-FGT 21.23GB

[复制链接]

 成长值: 130

级别:资源管理组

UID
1
注册时间
2017-10-20
最后登录
2019-1-22
听众
0
收听
0
主题
73996
蓝光币
116842 枚
贡献
143805 点
发表于 2018-12-17 22:47:36 | 显示全部楼层 |阅读模式

憨豆奸细3/凸槌特派员3 Johnny.English.Strikes.Again.2018.1080p.BluRay.REMUX.AVC.DTS-X.7.1-FGT 21.23GB-1.jpg
◎译  名 憨豆奸细3 / 凸槌特派员3(台) / 特务戆J:神级归位(港) / 憨豆奸细再反击 / Johnny English 3
◎片  名 憨豆奸细3 Johnny English Strikes Again
◎年  代 2018
◎国  家 法国 / 美国 / 英国
◎类  别 笑剧 / 行动 / 冒险
◎语  言 英语
◎上映日期 2018-11-23(中国大陆) / 2018-10-05(英国) / 2018-10-26(美国)
◎IMDb评分  6.5/10 from 16,022 users
◎IMDb链接  http://www.imdb.com/title/tt6921996/
◎豆瓣评分 6.7/10 from 19362 users
◎豆瓣链接 https://movie.douban.com/subject/27073234/
◎片  长 89分钟
◎导  演 大卫·科尔
◎主  演 罗温·艾金森
      本·米勒
      欧嘉·柯瑞兰寇
      杰克·莱西
      艾玛·汤普森
      米兰达·亨妮莎
      亚当·詹姆斯
      萨曼莎·罗素
      大卫·穆梅尼
      通恰伊·古奈什
      梶冈润一
      埃迪·奥康奈尔
      尼克·欧文福特
      马修·比尔德

◎简  介 

  《憨豆奸细3》是憨豆奸细系列笑剧的第三部作品,罗温·艾金森再度回归,继续饰演大受接待的鬼使神差入行的奸细强尼。此次的新冒险由一场黑客进犯拉开序幕,一切在职的奸细都被表露了身份,使得强尼成为情报处最初的拯救稻草。是以获得“返聘”的强尼第一个缺勤使命即是要找出这位超强 黑客 。木头木脑、技术堪忧的强尼将若何应对现代科技的应战,成功完成使命呢?


  1. Video
  2. ID                                       : 1
  3. Format                                   : AVC
  4. Format/Info                              : Advanced Video Codec
  5. Format profile                           : [url=/cdn-cgi/l/email-protection][email protected][/url]
  6. Format settings                          : CABAC / 4 Ref Frames
  7. Format settings, CABAC                   : Yes
  8. Format settings, ReFrames                : 4 frames
  9. Codec ID                                 : V_MPEG4/ISO/AVC
  10. Duration                                 : 1 h 28 min
  11. Bit rate mode                            : Variable
  12. Bit rate                                 : 26.5 Mb/s
  13. Maximum bit rate                         : 29.0 Mb/s
  14. Width                                    : 1 920 pixels
  15. Height                                   : 1 080 pixels
  16. Display aspect ratio                     : 16:9
  17. Frame rate mode                          : Constant
  18. Frame rate                               : 23.976 (24000/1001) FPS
  19. Color space                              : YUV
  20. Chroma subsampling                       : 4:2:0
  21. Bit depth                                : 8 bits
  22. Scan type                                : Progressive
  23. Bits/(Pixel*Frame)                       : 0.533
  24. Stream size                              : 16.4 GiB (77%)
  25. Title                                    : Johnny.English.Strikes.Again.2018.1080p.BluRay.REMUX.AVC.DTS-X.7.1-FGT
  26. Language                                 : English
  27. Default                                  : No
  28. Forced                                   : No

  29. Audio #1
  30. ID                                       : 2
  31. Format                                   : DTS XLL X
  32. Format/Info                              : Digital Theater Systems
  33. Commercial name                          : DTS-HD Master Audio
  34. Codec ID                                 : A_DTS
  35. Duration                                 : 1 h 28 min
  36. Bit rate mode                            : Variable
  37. Bit rate                                 : 5 909 kb/s
  38. Channel(s)                               : 8 channels
  39. Channel(s)_Original                      : Object Based
  40. Channel layout                           : Object Based
  41. Sampling rate                            : 48.0 kHz
  42. Frame rate                               : 93.750 FPS (512 SPF)
  43. Bit depth                                : 24 bits
  44. Stream size                              : 3.66 GiB (17%)
  45. Title                                    : Johnny.English.Strikes.Again.2018.1080p.BluRay.REMUX.AVC.DTS-X.7.1-FGT
  46. Language                                 : English
  47. Default                                  : Yes
  48. Forced                                   : No

  49. Audio #2
  50. ID                                       : 3
  51. Format                                   : DTS
  52. Format/Info                              : Digital Theater Systems
  53. Codec ID                                 : A_DTS
  54. Duration                                 : 1 h 28 min
  55. Bit rate mode                            : Constant
  56. Bit rate                                 : 1 509 kb/s
  57. Channel(s)                               : 6 channels
  58. Channel layout                           : C L R Ls Rs LFE
  59. Sampling rate                            : 48.0 kHz
  60. Frame rate                               : 93.750 FPS (512 SPF)
  61. Bit depth                                : 24 bits
  62. Compression mode                         : Lossy
  63. Stream size                              : 956 MiB (4%)
  64. Title                                    : Johnny.English.Strikes.Again.2018.1080p.BluRay.REMUX.AVC.DTS-X.7.1-FGT
  65. Language                                 : English
  66. Default                                  : No
  67. Forced                                   : No

  68. Audio #3
  69. ID                                       : 4
  70. Format                                   : AC-3
  71. Format/Info                              : Audio Coding 3
  72. Commercial name                          : Dolby Digital
  73. Codec ID                                 : A_AC3
  74. Duration                                 : 1 h 28 min
  75. Bit rate mode                            : Constant
  76. Bit rate                                 : 192 kb/s
  77. Channel(s)                               : 2 channels
  78. Channel layout                           : L R
  79. Sampling rate                            : 48.0 kHz
  80. Frame rate                               : 31.250 FPS (1536 SPF)
  81. Bit depth                                : 16 bits
  82. Compression mode                         : Lossy
  83. Stream size                              : 122 MiB (1%)
  84. Title                                    : Johnny.English.Strikes.Again.2018.1080p.BluRay.REMUX.AVC.DTS-X.7.1-FGT
  85. Language                                 : English
  86. Service kind                             : Complete Main
  87. Default                                  : No
  88. Forced                                   : No

  89. Audio #4
  90. ID                                       : 5
  91. Format                                   : AC-3
  92. Format/Info                              : Audio Coding 3
  93. Commercial name                          : Dolby Digital
  94. Codec ID                                 : A_AC3
  95. Duration                                 : 1 h 28 min
  96. Bit rate mode                            : Constant
  97. Bit rate                                 : 192 kb/s
  98. Channel(s)                               : 2 channels
  99. Channel layout                           : L R
  100. Sampling rate                            : 48.0 kHz
  101. Frame rate                               : 31.250 FPS (1536 SPF)
  102. Bit depth                                : 16 bits
  103. Compression mode                         : Lossy
  104. Stream size                              : 122 MiB (1%)
  105. Title                                    : Johnny.English.Strikes.Again.2018.1080p.BluRay.REMUX.AVC.DTS-X.7.1-FGT
  106. Language                                 : English
  107. Service kind                             : Complete Main
  108. Default                                  : No
  109. Forced                                   : No

  110. Text #1
  111. ID                                       : 6
  112. Format                                   : PGS
  113. Muxing mode                              : zlib
  114. Codec ID                                 : S_HDMV/PGS
  115. Codec ID/Info                            : Picture based subtitle format used on BDs/HD-DVDs
  116. Duration                                 : 1 h 22 min
  117. Bit rate                                 : 45.9 kb/s
  118. Count of elements                        : 2603
  119. Stream size                              : 27.1 MiB (0%)
  120. Title                                    : English-PGS
  121. Language                                 : English
  122. Default                                  : Yes
  123. Forced                                   : No

  124. Text #2
  125. ID                                       : 7
  126. Format                                   : PGS
  127. Muxing mode                              : zlib
  128. Codec ID                                 : S_HDMV/PGS
  129. Codec ID/Info                            : Picture based subtitle format used on BDs/HD-DVDs
  130. Duration                                 : 1 h 23 min
  131. Bit rate                                 : 67.5 kb/s
  132. Count of elements                        : 3261
  133. Stream size                              : 40.4 MiB (0%)
  134. Title                                    : English-SDH-PGS
  135. Language                                 : English
  136. Default                                  : No
  137. Forced                                   : No

  138. Menu
  139. 00:00:00.000                             : en:Chapter 01
  140. 00:05:06.681                             : en:Chapter 02
  141. 00:09:05.378                             : en:Chapter 03
  142. 00:13:14.794                             : en:Chapter 04
  143. 00:19:22.369                             : en:Chapter 05
  144. 00:21:31.832                             : en:Chapter 06
  145. 00:26:41.975                             : en:Chapter 07
  146. 00:32:31.240                             : en:Chapter 08
  147. 00:34:48.086                             : en:Chapter 09
  148. 00:39:49.428                             : en:Chapter 10
  149. 00:45:49.121                             : en:Chapter 11
  150. 00:51:22.204                             : en:Chapter 12
  151. 00:54:31.851                             : en:Chapter 13
  152. 00:58:58.201                             : en:Chapter 14
  153. 01:02:58.441                             : en:Chapter 15
  154. 01:08:21.597                             : en:Chapter 16
  155. 01:11:40.963                             : en:Chapter 17
  156. 01:15:03.415                             : en:Chapter 18
  157. 01:20:54.808                             : en:Chapter 19
  158. 01:23:52.527                             : en:Chapter 20
复制代码

复制代码

憨豆奸细3/凸槌特派员3 Johnny.English.Strikes.Again.2018.1080p.BluRay.REMUX.AVC.DTS-X.7.1-FGT 21.23GB-2.png 憨豆奸细3/凸槌特派员3 Johnny.English.Strikes.Again.2018.1080p.BluRay.REMUX.AVC.DTS-X.7.1-FGT 21.23GB-3.png 憨豆奸细3/凸槌特派员3 Johnny.English.Strikes.Again.2018.1080p.BluRay.REMUX.AVC.DTS-X.7.1-FGT 21.23GB-4.png





回复

使用道具 举报

级别:普通观众 Lv.2

UID
11912
注册时间
2018-12-11
最后登录
2019-1-22
听众
0
收听
0
主题
0
蓝光币
112 枚
贡献
0 点
QQ
发表于 2018-12-18 08:23:20 | 显示全部楼层
谢谢分享!!!!
回复

使用道具 举报

级别:专业龙套 Lv.4

UID
3899
注册时间
2018-5-20
最后登录
2019-1-22
听众
2
收听
0
主题
0
蓝光币
78 枚
贡献
0 点
发表于 2018-12-18 10:05:44 | 显示全部楼层
这资源真快  牛B  谢谢分享
回复

使用道具 举报

级别:初级观众 Lv.1

UID
10279
注册时间
2018-11-17
最后登录
2018-12-21
听众
0
收听
0
主题
0
蓝光币
1 枚
贡献
0 点
QQ
发表于 2018-12-18 16:38:18 | 显示全部楼层
这个电影不错,谢谢分享!
回复

使用道具 举报

级别:普通观众 Lv.2

UID
10425
注册时间
2018-11-19
最后登录
2019-1-21
听众
0
收听
0
主题
0
蓝光币
5 枚
贡献
0 点
QQ
发表于 2018-12-18 20:41:16 | 显示全部楼层

楼主太厉害了!楼主,电影应该很好看我觉得中国高清电影网真是个好地方!
回复

使用道具 举报

级别:群众演员 Lv.3

UID
11066
注册时间
2018-11-29
最后登录
2019-1-22
听众
0
收听
0
主题
0
蓝光币
281 枚
贡献
0 点
QQ
发表于 2018-12-18 21:58:36 | 显示全部楼层

我看不错噢 谢谢楼主!中国高清电影网越来越好!
回复

使用道具 举报

级别:初级观众 Lv.1

UID
13099
注册时间
2018-12-27
最后登录
2018-12-27
听众
0
收听
0
主题
0
蓝光币
1 枚
贡献
0 点
QQ
发表于 2018-12-27 15:37:55 | 显示全部楼层
楼主发贴辛苦了,谢谢楼主分享!我觉得中国高清电影网是注册对了!
回复

使用道具 举报

级别:初级观众 Lv.1

UID
13099
注册时间
2018-12-27
最后登录
2018-12-27
听众
0
收听
0
主题
0
蓝光币
1 枚
贡献
0 点
QQ
发表于 2018-12-27 15:39:11 | 显示全部楼层

楼主太厉害了!楼主,电影应该很好看我觉得中国高清电影网真是个好地方!
回复

使用道具 举报

级别:初级观众 Lv.1

UID
10241
注册时间
2018-11-16
最后登录
2018-12-27
听众
0
收听
0
主题
0
蓝光币
2 枚
贡献
0 点
发表于 2018-12-27 20:57:15 | 显示全部楼层
楼主发贴辛苦了,谢谢楼主分享!我觉得中国高清电影网是注册对了!
回复

使用道具 举报

级别:专业龙套 Lv.4

UID
4064
注册时间
2018-5-27
最后登录
2019-1-22
听众
3
收听
0
主题
0
蓝光币
2 枚
贡献
0 点
发表于 2019-1-11 20:48:05 | 显示全部楼层
感谢分享!
回复

使用道具 举报

懒得打字嘛,点击右侧快捷回复 【右侧内容,后台自定义】
您需要登录后才可以回帖 登录 | 立即注册

本版积分规则

QQ|Archiver|手机版|小黑屋|中国高清网 |网站地图

GMT+8, 2019-1-23 01:11 , Processed in 0.153805 second(s), 41 queries .

Powered by HDchina X3.4

Copyright 2017-2018©HDchina.All right reserved

返回顶部 联系我们