你所知道的4K资源这里全部都有 4K电影 | 4K视频 | 4K壁纸 | 4K MV 怎么播放4K视频 | 4K电视演示片

教你玩转4K私人与家庭影院存储 NAS组装 | 黑群辉 家庭/影院Nas论坛

4K家庭影院信号源与视频设备知识 4K蓝光高清播放机 - 那个品牌好? 4K投影机论坛 | 4K电视机论坛

手把手教你搭建属于自己的家庭影院 4K家庭影院案例 | 家庭影院音频 4K家庭影院论坛

查看: 52|回复: 1

[剧情片] 小小陌生人 The.Little.Stranger.2018.1080p.BluRay.REMUX.AVC.DTS-HD.MA.5.1-FGT 29.39GB

[复制链接]

 成长值: 70

级别:资源管理组

UID
1
注册时间
2017-10-20
最后登录
2019-1-17
听众
0
收听
0
主题
73857
蓝光币
114328 枚
贡献
143666 点
发表于 2018-12-17 22:46:39 | 显示全部楼层 |阅读模式

小小陌生人 The.Little.Stranger.2018.1080p.BluRay.REMUX.AVC.DTS-HD.MA.5.1-FGT 29.39GB-1.jpg
◎译  名 小小陌生人
◎片  名 小小陌生人 The Little Stranger
◎年  代 2018
◎国  家 爱尔兰 / 英国 / 法国
◎类  别 剧情 / 悬疑 / 惊悚 / 可骇
◎语  言 英语
◎上映日期 2018-08-31(美国)
◎IMDb评分  5.7/10 from 2,712 users
◎IMDb链接  http://www.imdb.com/title/tt6859762/
◎豆瓣评分 5.6/10 from 403 users
◎豆瓣链接 https://movie.douban.com/subject/5327406/
◎片  长 111分钟
◎导  演 伦尼·阿伯拉罕森
◎主  演 多姆纳尔·格里森
      露丝·威尔森
      乔什·迪伦
      夏洛特·兰普林
      威尔·保尔特
      达伦·肯特
      凯特·菲利普斯
      迪克西 艾格瑞克斯
      蒂姆· 普莱斯特
      洛娜·麦克法迪
      克里斯·科克森

◎简  介 

  按照萨拉·沃特斯同名小说改编,报告衰败的艾尔斯家属蒙受奥秘病痛熬煎,医生法拉第医生(格里森饰)被要求治疗他们,可令法拉第惊奇的是自己和这家人的命运慎密联系在一路。


  1. Video
  2. ID                                       : 1
  3. Format                                   : AVC
  4. Format/Info                              : Advanced Video Codec
  5. Format profile                           : [url=/cdn-cgi/l/email-protection][email protected][/url]
  6. Format settings                          : CABAC / 4 Ref Frames
  7. Format settings, CABAC                   : Yes
  8. Format settings, ReFrames                : 4 frames
  9. Format settings, GOP                     : M=3, N=12
  10. Codec ID                                 : V_MPEG4/ISO/AVC
  11. Duration                                 : 1 h 51 min
  12. Bit rate mode                            : Variable
  13. Bit rate                                 : 31.8 Mb/s
  14. Maximum bit rate                         : 35.0 Mb/s
  15. Width                                    : 1 920 pixels
  16. Height                                   : 1 080 pixels
  17. Display aspect ratio                     : 16:9
  18. Frame rate mode                          : Constant
  19. Frame rate                               : 23.976 (24000/1001) FPS
  20. Color space                              : YUV
  21. Chroma subsampling                       : 4:2:0
  22. Bit depth                                : 8 bits
  23. Scan type                                : Progressive
  24. Bits/(Pixel*Frame)                       : 0.640
  25. Stream size                              : 24.8 GiB (84%)
  26. Title                                    : The.Little.Stranger.2018.1080p.BluRay.REMUX.AVC.DTS-HD.MA.5.1-FGT
  27. Language                                 : English
  28. Default                                  : No
  29. Forced                                   : No

  30. Audio #1
  31. ID                                       : 2
  32. Format                                   : DTS XLL
  33. Format/Info                              : Digital Theater Systems
  34. Commercial name                          : DTS-HD Master Audio
  35. Codec ID                                 : A_DTS
  36. Duration                                 : 1 h 51 min
  37. Bit rate mode                            : Variable
  38. Bit rate                                 : 3 363 kb/s
  39. Channel(s)                               : 6 channels
  40. Channel layout                           : C L R Ls Rs LFE
  41. Sampling rate                            : 48.0 kHz
  42. Frame rate                               : 93.750 FPS (512 SPF)
  43. Bit depth                                : 24 bits
  44. Compression mode                         : Lossless
  45. Stream size                              : 2.62 GiB (9%)
  46. Title                                    : The.Little.Stranger.2018.1080p.BluRay.REMUX.AVC.DTS-HD.MA.5.1-FGT
  47. Language                                 : English
  48. Default                                  : Yes
  49. Forced                                   : No

  50. Audio #2
  51. ID                                       : 3
  52. Format                                   : DTS
  53. Format/Info                              : Digital Theater Systems
  54. Codec ID                                 : A_DTS
  55. Duration                                 : 1 h 51 min
  56. Bit rate mode                            : Constant
  57. Bit rate                                 : 1 509 kb/s
  58. Channel(s)                               : 6 channels
  59. Channel layout                           : C L R Ls Rs LFE
  60. Sampling rate                            : 48.0 kHz
  61. Frame rate                               : 93.750 FPS (512 SPF)
  62. Bit depth                                : 24 bits
  63. Compression mode                         : Lossy
  64. Stream size                              : 1.18 GiB (4%)
  65. Title                                    : The.Little.Stranger.2018.1080p.BluRay.REMUX.AVC.DTS-HD.MA.5.1-FGT
  66. Language                                 : English
  67. Default                                  : No
  68. Forced                                   : No

  69. Audio #3
  70. ID                                       : 4
  71. Format                                   : DTS
  72. Format/Info                              : Digital Theater Systems
  73. Codec ID                                 : A_DTS
  74. Duration                                 : 1 h 51 min
  75. Bit rate mode                            : Constant
  76. Bit rate                                 : 768 kb/s
  77. Channel(s)                               : 6 channels
  78. Channel layout                           : C L R Ls Rs LFE
  79. Sampling rate                            : 48.0 kHz
  80. Frame rate                               : 93.750 FPS (512 SPF)
  81. Bit depth                                : 24 bits
  82. Compression mode                         : Lossy
  83. Stream size                              : 613 MiB (2%)
  84. Title                                    : The.Little.Stranger.2018.1080p.BluRay.REMUX.AVC.DTS-HD.MA.5.1-FGT
  85. Language                                 : Spanish
  86. Default                                  : No
  87. Forced                                   : No

  88. Audio #4
  89. ID                                       : 5
  90. Format                                   : AC-3
  91. Format/Info                              : Audio Coding 3
  92. Commercial name                          : Dolby Digital
  93. Codec ID                                 : A_AC3
  94. Duration                                 : 1 h 51 min
  95. Bit rate mode                            : Constant
  96. Bit rate                                 : 192 kb/s
  97. Channel(s)                               : 2 channels
  98. Channel layout                           : L R
  99. Sampling rate                            : 48.0 kHz
  100. Frame rate                               : 31.250 FPS (1536 SPF)
  101. Bit depth                                : 16 bits
  102. Compression mode                         : Lossy
  103. Stream size                              : 153 MiB (1%)
  104. Title                                    : The.Little.Stranger.2018.1080p.BluRay.REMUX.AVC.DTS-HD.MA.5.1-FGT
  105. Language                                 : English
  106. Service kind                             : Complete Main
  107. Default                                  : No
  108. Forced                                   : No

  109. Text #1
  110. ID                                       : 6
  111. Format                                   : PGS
  112. Muxing mode                              : zlib
  113. Codec ID                                 : S_HDMV/PGS
  114. Codec ID/Info                            : Picture based subtitle format used on BDs/HD-DVDs
  115. Duration                                 : 1 h 42 min
  116. Bit rate                                 : 36.7 kb/s
  117. Count of elements                        : 2695
  118. Stream size                              : 26.8 MiB (0%)
  119. Title                                    : English-PGS
  120. Language                                 : English
  121. Default                                  : Yes
  122. Forced                                   : No

  123. Text #2
  124. ID                                       : 7
  125. Format                                   : PGS
  126. Muxing mode                              : zlib
  127. Codec ID                                 : S_HDMV/PGS
  128. Codec ID/Info                            : Picture based subtitle format used on BDs/HD-DVDs
  129. Duration                                 : 1 h 49 min
  130. Bit rate                                 : 27.5 kb/s
  131. Count of elements                        : 2438
  132. Stream size                              : 21.5 MiB (0%)
  133. Title                                    : Spanish-PGS
  134. Language                                 : Spanish
  135. Default                                  : No
  136. Forced                                   : No

  137. Text #3
  138. ID                                       : 8
  139. Format                                   : PGS
  140. Muxing mode                              : zlib
  141. Codec ID                                 : S_HDMV/PGS
  142. Codec ID/Info                            : Picture based subtitle format used on BDs/HD-DVDs
  143. Duration                                 : 1 h 49 min
  144. Bit rate                                 : 27.3 kb/s
  145. Count of elements                        : 2438
  146. Stream size                              : 21.3 MiB (0%)
  147. Title                                    : French-PGS
  148. Language                                 : French
  149. Default                                  : No
  150. Forced                                   : No

  151. Text #4
  152. ID                                       : 9
  153. Format                                   : PGS
  154. Muxing mode                              : zlib
  155. Codec ID                                 : S_HDMV/PGS
  156. Codec ID/Info                            : Picture based subtitle format used on BDs/HD-DVDs
  157. Duration                                 : 1 h 9 min
  158. Bit rate                                 : 126 b/s
  159. Count of elements                        : 12
  160. Stream size                              : 65.0 KiB (0%)
  161. Title                                    : Spanish-FORCED-PGS
  162. Language                                 : Spanish
  163. Default                                  : No
  164. Forced                                   : No

  165. Menu
  166. 00:00:00.000                             : en:Chapter 01
  167. 00:06:23.466                             : en:Chapter 02
  168. 00:11:16.133                             : en:Chapter 03
  169. 00:16:38.706                             : en:Chapter 04
  170. 00:21:04.054                             : en:Chapter 05
  171. 00:28:01.388                             : en:Chapter 06
  172. 00:34:00.163                             : en:Chapter 07
  173. 00:40:02.817                             : en:Chapter 08
  174. 00:48:41.919                             : en:Chapter 09
  175. 00:57:36.453                             : en:Chapter 10
  176. 01:03:31.557                             : en:Chapter 11
  177. 01:09:03.430                             : en:Chapter 12
  178. 01:14:17.953                             : en:Chapter 13
  179. 01:18:27.577                             : en:Chapter 14
  180. 01:23:05.730                             : en:Chapter 15
  181. 01:28:52.994                             : en:Chapter 16
  182. 01:32:56.696                             : en:Chapter 17
  183. 01:37:19.500                             : en:Chapter 18
  184. 01:40:57.468                             : en:Chapter 19
  185. 01:43:43.133                             : en:Chapter 20
复制代码

复制代码

小小陌生人 The.Little.Stranger.2018.1080p.BluRay.REMUX.AVC.DTS-HD.MA.5.1-FGT 29.39GB-2.png 小小陌生人 The.Little.Stranger.2018.1080p.BluRay.REMUX.AVC.DTS-HD.MA.5.1-FGT 29.39GB-3.png 小小陌生人 The.Little.Stranger.2018.1080p.BluRay.REMUX.AVC.DTS-HD.MA.5.1-FGT 29.39GB-4.png





回复

使用道具 举报

级别:专业龙套 Lv.4

UID
4064
注册时间
2018-5-27
最后登录
2019-1-13
听众
3
收听
0
主题
0
蓝光币
1 枚
贡献
0 点
发表于 6 天前 | 显示全部楼层
感谢分享!
回复

使用道具 举报

懒得打字嘛,点击右侧快捷回复 【右侧内容,后台自定义】
您需要登录后才可以回帖 登录 | 立即注册

本版积分规则

QQ|Archiver|手机版|小黑屋|中国高清网 |网站地图

GMT+8, 2019-1-17 12:28 , Processed in 0.156463 second(s), 41 queries .

Powered by HDchina X3.4

Copyright 2017-2018©HDchina.All right reserved

返回顶部 联系我们