你所知道的4K资源这里全部都有 4K电影 | 4K视频 | 4K壁纸 | 4K MV 怎么播放4K视频 | 4K电视演示片

教你玩转4K私人与家庭影院存储 NAS组装 | 黑群辉 家庭/影院Nas论坛

4K家庭影院信号源与视频设备知识 4K蓝光高清播放机 - 那个品牌好? 4K投影机论坛 | 4K电视机论坛

手把手教你搭建属于自己的家庭影院 4K家庭影院案例 | 家庭影院音频 4K家庭影院论坛

查看: 136|回复: 1

[科幻片] 收割伊丽莎白/伊丽莎白收获 Elizabeth.Harvest.2018.1080p.BluRay.REMUX.AVC.DTS-HD.MA.5.1-FGT 24.68GB

[复制链接]

 成长值: 710

级别:资源管理组

注册时间
2017-10-20
最后登录
2019-3-22
听众
0
收听
0
主题
76497
蓝光币
134743 枚
贡献
146306 点
发表于 2018-12-16 11:57:33 | 显示全部楼层 |阅读模式

收割伊丽莎白/伊丽莎白收获 Elizabeth.Harvest.2018.1080p.BluRay.REMUX.AVC.DTS-HD.MA.5.1-FGT 24.68GB-1.jpg
◎译  名 收割伊丽莎白 / 伊丽莎白收获
◎片  名 收割伊丽莎白 Elizabeth Harvest
◎年  代 2018
◎国  家 美国
◎类  别 科幻 / 惊悚
◎语  言 英语
◎上映日期 2018-03-10(西南偏南电影节) / 2018-08-10(美国)
◎IMDb评分  5.7/10 from 1,694 users
◎IMDb链接  http://www.imdb.com/title/tt6852872/
◎豆瓣评分 5.7/10 from 108 users
◎豆瓣链接 https://movie.douban.com/subject/27073254/
◎片  长 108
◎导  演 塞巴斯蒂安·古提耶雷兹
◎主  演 阿比·丽
      卡拉·古奇诺
      塞伦·希德
      迪伦·贝克
      马修·比尔德

◎简  介 

  Newlywed Elizabeth (Abbey Lee) arrives with her brilliant scientist husband Henry (Ciarán Hinds) to his magnificent estate, where he wows her with lavish dinners and a dazzling tour of the property. The house staff Claire (Carla Gugino) and Oliver (Matthew Beard) treat her deferentially but she can't shake the feeling something is off. Henry explains that everything in his world now belongs to her, all is for her to play in - all except for a locked-off room he forbids her from entering. When he goes away for business, Elizabeth decides to investigate.


  1. Video
  2. ID                                       : 1
  3. Format                                   : AVC
  4. Format/Info                              : Advanced Video Codec
  5. Format profile                           : [url=/cdn-cgi/l/email-protection][email protected][/url]
  6. Format settings                          : CABAC / 4 Ref Frames
  7. Format settings, CABAC                   : Yes
  8. Format settings, ReFrames                : 4 frames
  9. Codec ID                                 : V_MPEG4/ISO/AVC
  10. Duration                                 : 1 h 48 min
  11. Bit rate mode                            : Variable
  12. Bit rate                                 : 24.7 Mb/s
  13. Maximum bit rate                         : 33.5 Mb/s
  14. Width                                    : 1 920 pixels
  15. Height                                   : 1 080 pixels
  16. Display aspect ratio                     : 16:9
  17. Frame rate mode                          : Constant
  18. Frame rate                               : 23.976 (24000/1001) FPS
  19. Color space                              : YUV
  20. Chroma subsampling                       : 4:2:0
  21. Bit depth                                : 8 bits
  22. Scan type                                : Progressive
  23. Bits/(Pixel*Frame)                       : 0.497
  24. Stream size                              : 18.8 GiB (76%)
  25. Title                                    : Elizabeth.Harvest.2018.1080p.BluRay.REMUX.AVC.DTS-HD.MA.5.1-FGT
  26. Language                                 : English
  27. Default                                  : No
  28. Forced                                   : No

  29. Audio #1
  30. ID                                       : 2
  31. Format                                   : DTS XLL
  32. Format/Info                              : Digital Theater Systems
  33. Commercial name                          : DTS-HD Master Audio
  34. Codec ID                                 : A_DTS
  35. Duration                                 : 1 h 48 min
  36. Bit rate mode                            : Variable
  37. Bit rate                                 : 3 078 kb/s
  38. Channel(s)                               : 6 channels
  39. Channel layout                           : C L R Ls Rs LFE
  40. Sampling rate                            : 48.0 kHz
  41. Frame rate                               : 93.750 FPS (512 SPF)
  42. Bit depth                                : 24 bits
  43. Compression mode                         : Lossless
  44. Stream size                              : 2.34 GiB (9%)
  45. Title                                    : Elizabeth.Harvest.2018.1080p.BluRay.REMUX.AVC.DTS-HD.MA.5.1-FGT
  46. Language                                 : English
  47. Default                                  : Yes
  48. Forced                                   : No

  49. Audio #2
  50. ID                                       : 3
  51. Format                                   : DTS
  52. Format/Info                              : Digital Theater Systems
  53. Codec ID                                 : A_DTS
  54. Duration                                 : 1 h 48 min
  55. Bit rate mode                            : Constant
  56. Bit rate                                 : 1 509 kb/s
  57. Channel(s)                               : 6 channels
  58. Channel layout                           : C L R Ls Rs LFE
  59. Sampling rate                            : 48.0 kHz
  60. Frame rate                               : 93.750 FPS (512 SPF)
  61. Bit depth                                : 24 bits
  62. Compression mode                         : Lossy
  63. Stream size                              : 1.15 GiB (5%)
  64. Title                                    : Elizabeth.Harvest.2018.1080p.BluRay.REMUX.AVC.DTS-HD.MA.5.1-FGT
  65. Language                                 : English
  66. Default                                  : No
  67. Forced                                   : No

  68. Audio #3
  69. ID                                       : 4
  70. Format                                   : DTS XLL
  71. Format/Info                              : Digital Theater Systems
  72. Commercial name                          : DTS-HD Master Audio
  73. Codec ID                                 : A_DTS
  74. Duration                                 : 1 h 48 min
  75. Bit rate mode                            : Variable
  76. Bit rate                                 : 1 606 kb/s
  77. Channel(s)                               : 2 channels
  78. Channel layout                           : L R
  79. Sampling rate                            : 48.0 kHz
  80. Frame rate                               : 93.750 FPS (512 SPF)
  81. Bit depth                                : 24 bits
  82. Compression mode                         : Lossless
  83. Stream size                              : 1.22 GiB (5%)
  84. Title                                    : Elizabeth.Harvest.2018.1080p.BluRay.REMUX.AVC.DTS-HD.MA.5.1-FGT
  85. Language                                 : English
  86. Default                                  : No
  87. Forced                                   : No

  88. Audio #4
  89. ID                                       : 5
  90. Format                                   : DTS
  91. Format/Info                              : Digital Theater Systems
  92. Codec ID                                 : A_DTS
  93. Duration                                 : 1 h 48 min
  94. Bit rate mode                            : Constant
  95. Bit rate                                 : 1 509 kb/s
  96. Channel(s)                               : 2 channels
  97. Channel layout                           : L R
  98. Sampling rate                            : 48.0 kHz
  99. Frame rate                               : 93.750 FPS (512 SPF)
  100. Bit depth                                : 24 bits
  101. Compression mode                         : Lossy
  102. Stream size                              : 1.15 GiB (5%)
  103. Title                                    : Elizabeth.Harvest.2018.1080p.BluRay.REMUX.AVC.DTS-HD.MA.5.1-FGT
  104. Language                                 : English
  105. Default                                  : No
  106. Forced                                   : No

  107. Text #1
  108. ID                                       : 6
  109. Format                                   : PGS
  110. Muxing mode                              : zlib
  111. Codec ID                                 : S_HDMV/PGS
  112. Codec ID/Info                            : Picture based subtitle format used on BDs/HD-DVDs
  113. Duration                                 : 1 h 43 min
  114. Bit rate                                 : 24.0 kb/s
  115. Count of elements                        : 1876
  116. Stream size                              : 17.7 MiB (0%)
  117. Title                                    : English-PGS
  118. Language                                 : English
  119. Default                                  : Yes
  120. Forced                                   : No

  121. Text #2
  122. ID                                       : 7
  123. Format                                   : PGS
  124. Muxing mode                              : zlib
  125. Codec ID                                 : S_HDMV/PGS
  126. Codec ID/Info                            : Picture based subtitle format used on BDs/HD-DVDs
  127. Duration                                 : 1 h 43 min
  128. Bit rate                                 : 23.8 kb/s
  129. Count of elements                        : 1702
  130. Stream size                              : 17.6 MiB (0%)
  131. Title                                    : Spanish-PGS
  132. Language                                 : Spanish
  133. Default                                  : No
  134. Forced                                   : No

  135. Menu
  136. 00:00:00.000                             : en:Chapter 01
  137. 00:07:24.694                             : en:Chapter 02
  138. 00:16:16.350                             : en:Chapter 03
  139. 00:25:24.189                             : en:Chapter 04
  140. 00:34:57.095                             : en:Chapter 05
  141. 00:43:50.794                             : en:Chapter 06
  142. 00:53:28.079                             : en:Chapter 07
  143. 01:03:53.579                             : en:Chapter 08
  144. 01:13:17.351                             : en:Chapter 09
  145. 01:24:46.081                             : en:Chapter 10
  146. 01:37:38.394                             : en:Chapter 11
  147. 01:44:28.679                             : en:Chapter 12
  148. 01:48:48.939                             : en:Chapter 13
复制代码

复制代码

收割伊丽莎白/伊丽莎白收获 Elizabeth.Harvest.2018.1080p.BluRay.REMUX.AVC.DTS-HD.MA.5.1-FGT 24.68GB-2.png 收割伊丽莎白/伊丽莎白收获 Elizabeth.Harvest.2018.1080p.BluRay.REMUX.AVC.DTS-HD.MA.5.1-FGT 24.68GB-3.png 收割伊丽莎白/伊丽莎白收获 Elizabeth.Harvest.2018.1080p.BluRay.REMUX.AVC.DTS-HD.MA.5.1-FGT 24.68GB-4.png





回复

使用道具 举报

级别:荣升主角 Lv.5

注册时间
2018-5-27
最后登录
2019-3-21
听众
4
收听
0
主题
0
蓝光币
17 枚
贡献
0 点
发表于 2019-1-11 20:46:24 | 显示全部楼层
感谢分享!
回复

使用道具 举报

懒得打字嘛,点击右侧快捷回复 【右侧内容,后台自定义】
您需要登录后才可以回帖 登录 | 立即注册

本版积分规则

QQ|Archiver|手机版|小黑屋|中国高清网 |网站地图

GMT+8, 2019-3-22 10:24 , Processed in 0.169141 second(s), 41 queries .

Powered by HDchina X3.4

Copyright 2017-2018©HDchina.All right reserved

返回顶部 联系我们