你所知道的4K资源这里全部都有 4K电影 | 4K视频 | 4K壁纸 | 4K MV 怎么播放4K视频 | 4K电视演示片

教你玩转4K私人与家庭影院存储 NAS组装 | 黑群辉 家庭/影院Nas论坛

4K家庭影院信号源与视频设备知识 4K蓝光高清播放机 - 那个品牌好? 4K投影机论坛 | 4K电视机论坛

手把手教你搭建属于自己的家庭影院 4K家庭影院案例 | 家庭影院音频 4K家庭影院论坛

查看: 45|回复: 0

[剧情片] 疯子 Maniac.1980.REMASTERED.1080p.BluRay.REMUX.AVC.DTS-HD.MA.7.1-FGT 22.20GB

[复制链接]

 成长值: 70

级别:资源管理组

UID
1
注册时间
2017-10-20
最后登录
2019-1-17
听众
0
收听
0
主题
73857
蓝光币
114324 枚
贡献
143666 点
发表于 2018-12-15 23:59:31 | 显示全部楼层 |阅读模式

疯子 Maniac.1980.REMASTERED.1080p.BluRay.REMUX.AVC.DTS-HD.MA.7.1-FGT 22.20GB-1.jpg
◎译  名 疯子
◎片  名 疯子 Maniac
◎年  代 1980
◎国  家 美国
◎类  别 剧情 / 惊悚 / 可骇
◎语  言 英语
◎上映日期 1980-12-26(美国)
◎IMDb评分  6.5/10 from 11,982 users
◎IMDb链接  http://www.imdb.com/title/tt0081114/
◎豆瓣评分 6.2/10 from 333 users
◎豆瓣链接 https://movie.douban.com/subject/1293634/
◎片  长 87 分钟
◎导  演 威廉·拉斯蒂格
◎主  演 乔·斯皮内尔
      卡罗琳·莫罗
      Abigail Clayton

◎简  介 

  多年前,影片仆人公弗兰克的母亲惨死于一场车祸,虽然母亲生前粗鲁的凌虐他,还以卖身为生,但弗兰克仍然驰念她,弗兰克不想让母亲分开自己,甚至希望她能悔改改过,而弗兰克在变态心理的挑唆下,将杀人视作自己的宣泄路子。
  因而,很多无辜的女性成了这个恶魔的猎物,弗兰克剥下她们的头皮,像假发一般戴在公寓里摆放的打扮模特的头上,如数家珍的摆设起来。
  一次在公园里,弗兰克相逢了摄影师安娜,弗兰克起头追求安娜,两人很快坠入爱河。
  纯真的安娜更本没发觉到弗兰克残暴的罪行,在所难免成为下一个牺牲品……
  幕后花絮:
  ·片尾出现的无头尸身是1980年《13号星期五》中杰森的母亲帕默的尸身。
  ·本片的同名主题歌在片中并未出现,而是出现在1983年的《闪电舞》中。
  ·本片导演威廉·拉斯蒂格(William Lustig)和弗兰克的饰演者乔·斯皮内尔(Joe Spinell)称影片拍摄并未获得纽约当地的答应,很多场景都是趁人不备时快速拍摄的,而且在差人到来前必须尽快撤离。
  ·达里亚·尼古洛蒂(Daria Nicolodi)曾是饰演安娜的最初人选,但她那时正在意大利拍片,没法出演本片。
  ·影片起头沙滩上的场景是从1975年《大白鲨》的片头获得灵感。
  ·为了只管下降影片的拍摄本钱,片中很多受害者和小脚色是由色情片女演员饰演,其中包括至今仍活跃在 界的Gail Lawrence。
  -chang


  1. Video
  2. ID                                       : 1
  3. Format                                   : AVC
  4. Format/Info                              : Advanced Video Codec
  5. Format profile                           : [url=/cdn-cgi/l/email-protection][email protected][/url]
  6. Format settings                          : CABAC / 3 Ref Frames
  7. Format settings, CABAC                   : Yes
  8. Format settings, ReFrames                : 3 frames
  9. Codec ID                                 : V_MPEG4/ISO/AVC
  10. Duration                                 : 1 h 28 min
  11. Bit rate mode                            : Variable
  12. Bit rate                                 : 31.0 Mb/s
  13. Maximum bit rate                         : 38.5 Mb/s
  14. Width                                    : 1 920 pixels
  15. Height                                   : 1 080 pixels
  16. Display aspect ratio                     : 16:9
  17. Frame rate mode                          : Constant
  18. Frame rate                               : 23.976 (24000/1001) FPS
  19. Color space                              : YUV
  20. Chroma subsampling                       : 4:2:0
  21. Bit depth                                : 8 bits
  22. Scan type                                : Progressive
  23. Bits/(Pixel*Frame)                       : 0.624
  24. Stream size                              : 18.6 GiB (84%)
  25. Title                                    : Maniac.1980.REMASTERED.1080p.BluRay.REMUX.AVC.DTS-HD.MA.7.1-FGT
  26. Writing library                          : x264 core 148 r2744 b97ae06
  27. Encoding settings                        : cabac=1 / ref=4 / deblock=1:-2:-2 / analyse=0x3:0x133 / me=umh / subme=10 / psy=1 / psy_rd=1.00:0.25 / mixed_ref=1 / me_range=24 / chroma_me=1 / trellis=2 / 8x8dct=1 / cqm=0 / deadzone=6,6 / fast_pskip=1 / chroma_qp_offset=-4 / threads=12 / lookahead_threads=1 / sliced_threads=0 / slices=4 / nr=250 / decimate=0 / interlaced=0 / bluray_compat=1 / constrained_intra=0 / bframes=3 / b_pyramid=1 / b_adapt=2 / b_bias=0 / direct=3 / weightb=1 / open_gop=1 / weightp=1 / keyint=24 / keyint_min=1 / scenecut=40 / intra_refresh=0 / rc_lookahead=24 / rc=abr / mbtree=1 / bitrate=31000 / ratetol=1.0 / qcomp=0.80 / qpmin=0 / qpmax=69 / qpstep=4 / vbv_maxrate=38500 / vbv_bufsize=30000 / nal_hrd=vbr / filler=0 / ip_ratio=1.10 / aq=1:1.00
  28. Language                                 : English
  29. Default                                  : No
  30. Forced                                   : No
  31. Color range                              : Limited
  32. Color primaries                          : BT.709
  33. Transfer characteristics                 : BT.709
  34. Matrix coefficients                      : BT.709

  35. Audio #1
  36. ID                                       : 2
  37. Format                                   : DTS XLL
  38. Format/Info                              : Digital Theater Systems
  39. Commercial name                          : DTS-HD Master Audio
  40. Codec ID                                 : A_DTS
  41. Duration                                 : 1 h 28 min
  42. Bit rate mode                            : Variable
  43. Bit rate                                 : 1 825 kb/s
  44. Channel(s)                               : 8 channels
  45. Channel layout                           : C L R LFE Lb Rb Lss Rss
  46. Sampling rate                            : 48.0 kHz
  47. Frame rate                               : 93.750 FPS (512 SPF)
  48. Bit depth                                : 16 bits
  49. Compression mode                         : Lossless
  50. Stream size                              : 1.13 GiB (5%)
  51. Title                                    : Maniac.1980.REMASTERED.1080p.BluRay.REMUX.AVC.DTS-HD.MA.7.1-FGT
  52. Language                                 : English
  53. Default                                  : Yes
  54. Forced                                   : No

  55. Audio #2
  56. ID                                       : 3
  57. Format                                   : DTS
  58. Format/Info                              : Digital Theater Systems
  59. Codec ID                                 : A_DTS
  60. Duration                                 : 1 h 28 min
  61. Bit rate mode                            : Constant
  62. Bit rate                                 : 960 kb/s
  63. Channel(s)                               : 6 channels
  64. Channel layout                           : C L R Ls Rs LFE
  65. Sampling rate                            : 48.0 kHz
  66. Frame rate                               : 93.750 FPS (512 SPF)
  67. Bit depth                                : 16 bits
  68. Compression mode                         : Lossy
  69. Stream size                              : 606 MiB (3%)
  70. Title                                    : Maniac.1980.REMASTERED.1080p.BluRay.REMUX.AVC.DTS-HD.MA.7.1-FGT
  71. Language                                 : English
  72. Default                                  : No
  73. Forced                                   : No

  74. Audio #3
  75. ID                                       : 4
  76. Format                                   : DTS XLL
  77. Format/Info                              : Digital Theater Systems
  78. Commercial name                          : DTS-HD Master Audio
  79. Codec ID                                 : A_DTS
  80. Duration                                 : 1 h 28 min
  81. Bit rate mode                            : Variable
  82. Bit rate                                 : 673 kb/s
  83. Channel(s)                               : 2 channels
  84. Sampling rate                            : 48.0 kHz
  85. Frame rate                               : 93.750 FPS (512 SPF)
  86. Bit depth                                : 16 bits
  87. Compression mode                         : Lossless
  88. Stream size                              : 425 MiB (2%)
  89. Title                                    : Maniac.1980.REMASTERED.1080p.BluRay.REMUX.AVC.DTS-HD.MA.7.1-FGT
  90. Language                                 : English
  91. Default                                  : No
  92. Forced                                   : No

  93. Audio #4
  94. ID                                       : 5
  95. Format                                   : DTS
  96. Format/Info                              : Digital Theater Systems
  97. Codec ID                                 : A_DTS
  98. Duration                                 : 1 h 28 min
  99. Bit rate mode                            : Constant
  100. Bit rate                                 : 384 kb/s
  101. Channel(s)                               : 2 channels
  102. Channel layout                           : Lt Rt
  103. Sampling rate                            : 48.0 kHz
  104. Frame rate                               : 93.750 FPS (512 SPF)
  105. Bit depth                                : 16 bits
  106. Compression mode                         : Lossy
  107. Stream size                              : 242 MiB (1%)
  108. Title                                    : Maniac.1980.REMASTERED.1080p.BluRay.REMUX.AVC.DTS-HD.MA.7.1-FGT
  109. Language                                 : English
  110. Default                                  : No
  111. Forced                                   : No

  112. Audio #5
  113. ID                                       : 6
  114. Format                                   : AC-3
  115. Format/Info                              : Audio Coding 3
  116. Commercial name                          : Dolby Digital
  117. Codec ID                                 : A_AC3
  118. Duration                                 : 1 h 34 min
  119. Bit rate mode                            : Constant
  120. Bit rate                                 : 320 kb/s
  121. Channel(s)                               : 2 channels
  122. Channel layout                           : L R
  123. Sampling rate                            : 48.0 kHz
  124. Frame rate                               : 31.250 FPS (1536 SPF)
  125. Bit depth                                : 16 bits
  126. Compression mode                         : Lossy
  127. Stream size                              : 215 MiB (1%)
  128. Title                                    : Maniac.1980.REMASTERED.1080p.BluRay.REMUX.AVC.DTS-HD.MA.7.1-FGT
  129. Language                                 : Spanish
  130. Service kind                             : Complete Main
  131. Default                                  : No
  132. Forced                                   : No

  133. Audio #6
  134. ID                                       : 7
  135. Format                                   : AC-3
  136. Format/Info                              : Audio Coding 3
  137. Commercial name                          : Dolby Digital
  138. Codec ID                                 : A_AC3
  139. Duration                                 : 1 h 28 min
  140. Bit rate mode                            : Constant
  141. Bit rate                                 : 320 kb/s
  142. Channel(s)                               : 2 channels
  143. Channel layout                           : L R
  144. Sampling rate                            : 48.0 kHz
  145. Frame rate                               : 31.250 FPS (1536 SPF)
  146. Bit depth                                : 16 bits
  147. Compression mode                         : Lossy
  148. Stream size                              : 202 MiB (1%)
  149. Title                                    : Maniac.1980.REMASTERED.1080p.BluRay.REMUX.AVC.DTS-HD.MA.7.1-FGT
  150. Language                                 : French
  151. Service kind                             : Complete Main
  152. Default                                  : No
  153. Forced                                   : No

  154. Audio #7
  155. ID                                       : 8
  156. Format                                   : AC-3
  157. Format/Info                              : Audio Coding 3
  158. Commercial name                          : Dolby Digital
  159. Codec ID                                 : A_AC3
  160. Duration                                 : 1 h 28 min
  161. Bit rate mode                            : Constant
  162. Bit rate                                 : 320 kb/s
  163. Channel(s)                               : 2 channels
  164. Channel layout                           : L R
  165. Sampling rate                            : 48.0 kHz
  166. Frame rate                               : 31.250 FPS (1536 SPF)
  167. Bit depth                                : 16 bits
  168. Compression mode                         : Lossy
  169. Stream size                              : 202 MiB (1%)
  170. Title                                    : Maniac.1980.REMASTERED.1080p.BluRay.REMUX.AVC.DTS-HD.MA.7.1-FGT
  171. Language                                 : Italian
  172. Service kind                             : Complete Main
  173. Default                                  : No
  174. Forced                                   : No

  175. Audio #8
  176. ID                                       : 9
  177. Format                                   : AC-3
  178. Format/Info                              : Audio Coding 3
  179. Commercial name                          : Dolby Digital
  180. Codec ID                                 : A_AC3
  181. Duration                                 : 1 h 28 min
  182. Bit rate mode                            : Constant
  183. Bit rate                                 : 320 kb/s
  184. Channel(s)                               : 2 channels
  185. Channel layout                           : L R
  186. Sampling rate                            : 48.0 kHz
  187. Frame rate                               : 31.250 FPS (1536 SPF)
  188. Bit depth                                : 16 bits
  189. Compression mode                         : Lossy
  190. Stream size                              : 202 MiB (1%)
  191. Title                                    : Maniac.1980.REMASTERED.1080p.BluRay.REMUX.AVC.DTS-HD.MA.7.1-FGT
  192. Language                                 : German
  193. Service kind                             : Complete Main
  194. Default                                  : No
  195. Forced                                   : No

  196. Audio #9
  197. ID                                       : 10
  198. Format                                   : AC-3
  199. Format/Info                              : Audio Coding 3
  200. Commercial name                          : Dolby Digital
  201. Codec ID                                 : A_AC3
  202. Duration                                 : 1 h 28 min
  203. Bit rate mode                            : Constant
  204. Bit rate                                 : 224 kb/s
  205. Channel(s)                               : 2 channels
  206. Channel layout                           : L R
  207. Sampling rate                            : 48.0 kHz
  208. Frame rate                               : 31.250 FPS (1536 SPF)
  209. Bit depth                                : 16 bits
  210. Compression mode                         : Lossy
  211. Stream size                              : 141 MiB (1%)
  212. Title                                    : Maniac.1980.REMASTERED.1080p.BluRay.REMUX.AVC.DTS-HD.MA.7.1-FGT
  213. Language                                 : English
  214. Service kind                             : Complete Main
  215. Default                                  : No
  216. Forced                                   : No

  217. Audio #10
  218. ID                                       : 11
  219. Format                                   : AC-3
  220. Format/Info                              : Audio Coding 3
  221. Commercial name                          : Dolby Digital
  222. Codec ID                                 : A_AC3
  223. Duration                                 : 1 h 28 min
  224. Bit rate mode                            : Constant
  225. Bit rate                                 : 224 kb/s
  226. Channel(s)                               : 2 channels
  227. Channel layout                           : L R
  228. Sampling rate                            : 48.0 kHz
  229. Frame rate                               : 31.250 FPS (1536 SPF)
  230. Bit depth                                : 16 bits
  231. Compression mode                         : Lossy
  232. Stream size                              : 141 MiB (1%)
  233. Title                                    : Maniac.1980.REMASTERED.1080p.BluRay.REMUX.AVC.DTS-HD.MA.7.1-FGT
  234. Language                                 : English
  235. Service kind                             : Complete Main
  236. Default                                  : No
  237. Forced                                   : No

  238. Text #1
  239. ID                                       : 12
  240. Format                                   : PGS
  241. Muxing mode                              : zlib
  242. Codec ID                                 : S_HDMV/PGS
  243. Codec ID/Info                            : Picture based subtitle format used on BDs/HD-DVDs
  244. Duration                                 : 1 h 24 min
  245. Bit rate                                 : 37.6 kb/s
  246. Count of elements                        : 1556
  247. Stream size                              : 22.6 MiB (0%)
  248. Title                                    : English-PGS
  249. Language                                 : English
  250. Default                                  : Yes
  251. Forced                                   : No

  252. Text #2
  253. ID                                       : 13
  254. Format                                   : PGS
  255. Muxing mode                              : zlib
  256. Codec ID                                 : S_HDMV/PGS
  257. Codec ID/Info                            : Picture based subtitle format used on BDs/HD-DVDs
  258. Duration                                 : 1 h 21 min
  259. Bit rate                                 : 24.9 kb/s
  260. Count of elements                        : 1120
  261. Stream size                              : 14.5 MiB (0%)
  262. Title                                    : French-PGS
  263. Language                                 : French
  264. Default                                  : No
  265. Forced                                   : No

  266. Text #3
  267. ID                                       : 14
  268. Format                                   : PGS
  269. Muxing mode                              : zlib
  270. Codec ID                                 : S_HDMV/PGS
  271. Codec ID/Info                            : Picture based subtitle format used on BDs/HD-DVDs
  272. Duration                                 : 1 h 21 min
  273. Bit rate                                 : 25.6 kb/s
  274. Count of elements                        : 1078
  275. Stream size                              : 14.9 MiB (0%)
  276. Title                                    : SPanish-PGS
  277. Language                                 : Spanish
  278. Default                                  : No
  279. Forced                                   : No

  280. Text #4
  281. ID                                       : 15
  282. Format                                   : PGS
  283. Muxing mode                              : zlib
  284. Codec ID                                 : S_HDMV/PGS
  285. Codec ID/Info                            : Picture based subtitle format used on BDs/HD-DVDs
  286. Duration                                 : 1 h 21 min
  287. Bit rate                                 : 23.2 kb/s
  288. Count of elements                        : 1074
  289. Stream size                              : 13.5 MiB (0%)
  290. Title                                    : Portuguese-PGS
  291. Language                                 : Portuguese
  292. Default                                  : No
  293. Forced                                   : No

  294. Text #5
  295. ID                                       : 16
  296. Format                                   : PGS
  297. Muxing mode                              : zlib
  298. Codec ID                                 : S_HDMV/PGS
  299. Codec ID/Info                            : Picture based subtitle format used on BDs/HD-DVDs
  300. Duration                                 : 1 h 22 min
  301. Bit rate                                 : 26.3 kb/s
  302. Count of elements                        : 1074
  303. Stream size                              : 15.5 MiB (0%)
  304. Title                                    : German-PGS
  305. Language                                 : German
  306. Default                                  : No
  307. Forced                                   : No

  308. Text #6
  309. ID                                       : 17
  310. Format                                   : PGS
  311. Muxing mode                              : zlib
  312. Codec ID                                 : S_HDMV/PGS
  313. Codec ID/Info                            : Picture based subtitle format used on BDs/HD-DVDs
  314. Duration                                 : 1 h 22 min
  315. Bit rate                                 : 24.9 kb/s
  316. Count of elements                        : 1094
  317. Stream size                              : 14.7 MiB (0%)
  318. Title                                    : Italian-PGS
  319. Language                                 : Italian
  320. Default                                  : No
  321. Forced                                   : No

  322. Text #7
  323. ID                                       : 18
  324. Format                                   : PGS
  325. Muxing mode                              : zlib
  326. Codec ID                                 : S_HDMV/PGS
  327. Codec ID/Info                            : Picture based subtitle format used on BDs/HD-DVDs
  328. Duration                                 : 1 h 25 min
  329. Bit rate                                 : 26.1 kb/s
  330. Count of elements                        : 1114
  331. Stream size                              : 16.0 MiB (0%)
  332. Title                                    : Danish-PGS
  333. Language                                 : Danish
  334. Default                                  : No
  335. Forced                                   : No

  336. Text #8
  337. ID                                       : 19
  338. Format                                   : PGS
  339. Muxing mode                              : zlib
  340. Codec ID                                 : S_HDMV/PGS
  341. Codec ID/Info                            : Picture based subtitle format used on BDs/HD-DVDs
  342. Duration                                 : 1 h 25 min
  343. Bit rate                                 : 23.4 kb/s
  344. Count of elements                        : 1086
  345. Stream size                              : 14.3 MiB (0%)
  346. Title                                    : Finnish-PGS
  347. Language                                 : Finnish
  348. Default                                  : No
  349. Forced                                   : No

  350. Text #9
  351. ID                                       : 20
  352. Format                                   : PGS
  353. Muxing mode                              : zlib
  354. Codec ID                                 : S_HDMV/PGS
  355. Codec ID/Info                            : Picture based subtitle format used on BDs/HD-DVDs
  356. Duration                                 : 1 h 21 min
  357. Bit rate                                 : 26.2 kb/s
  358. Count of elements                        : 1080
  359. Stream size                              : 15.3 MiB (0%)
  360. Title                                    : Dutch-PGS
  361. Language                                 : Dutch
  362. Default                                  : No
  363. Forced                                   : No

  364. Text #10
  365. ID                                       : 21
  366. Format                                   : PGS
  367. Muxing mode                              : zlib
  368. Codec ID                                 : S_HDMV/PGS
  369. Codec ID/Info                            : Picture based subtitle format used on BDs/HD-DVDs
  370. Duration                                 : 1 h 22 min
  371. Bit rate                                 : 24.4 kb/s
  372. Count of elements                        : 1110
  373. Stream size                              : 14.4 MiB (0%)
  374. Title                                    : Swedish-PGS
  375. Language                                 : Swedish
  376. Default                                  : No
  377. Forced                                   : No

  378. Text #11
  379. ID                                       : 22
  380. Format                                   : PGS
  381. Muxing mode                              : zlib
  382. Codec ID                                 : S_HDMV/PGS
  383. Codec ID/Info                            : Picture based subtitle format used on BDs/HD-DVDs
  384. Duration                                 : 1 h 25 min
  385. Bit rate                                 : 23.8 kb/s
  386. Count of elements                        : 1132
  387. Stream size                              : 14.6 MiB (0%)
  388. Title                                    : Russian-PGS
  389. Language                                 : Russian
  390. Default                                  : No
  391. Forced                                   : No

  392. Text #12
  393. ID                                       : 23
  394. Format                                   : PGS
  395. Muxing mode                              : zlib
  396. Codec ID                                 : S_HDMV/PGS
  397. Codec ID/Info                            : Picture based subtitle format used on BDs/HD-DVDs
  398. Duration                                 : 1 h 22 min
  399. Bit rate                                 : 16.0 kb/s
  400. Count of elements                        : 1140
  401. Stream size                              : 9.37 MiB (0%)
  402. Title                                    : Korean-PGS
  403. Language                                 : Korean
  404. Default                                  : No
  405. Forced                                   : No

  406. Text #13
  407. ID                                       : 24
  408. Format                                   : PGS
  409. Muxing mode                              : zlib
  410. Codec ID                                 : S_HDMV/PGS
  411. Codec ID/Info                            : Picture based subtitle format used on BDs/HD-DVDs
  412. Duration                                 : 1 h 22 min
  413. Bit rate                                 : 19.7 kb/s
  414. Count of elements                        : 1143
  415. Stream size                              : 11.6 MiB (0%)
  416. Title                                    : Japanese-PGS
  417. Language                                 : Japanese
  418. Default                                  : No
  419. Forced                                   : No

  420. Text #14
  421. ID                                       : 25
  422. Format                                   : PGS
  423. Muxing mode                              : zlib
  424. Codec ID                                 : S_HDMV/PGS
  425. Codec ID/Info                            : Picture based subtitle format used on BDs/HD-DVDs
  426. Duration                                 : 1 h 25 min
  427. Bit rate                                 : 26.3 kb/s
  428. Count of elements                        : 1154
  429. Stream size                              : 16.1 MiB (0%)
  430. Title                                    : Chinese-PGS
  431. Language                                 : Chinese
  432. Default                                  : No
  433. Forced                                   : No

  434. Text #15
  435. ID                                       : 26
  436. Format                                   : PGS
  437. Muxing mode                              : zlib
  438. Codec ID                                 : S_HDMV/PGS
  439. Codec ID/Info                            : Picture based subtitle format used on BDs/HD-DVDs
  440. Duration                                 : 1 h 25 min
  441. Bit rate                                 : 26.4 kb/s
  442. Count of elements                        : 1154
  443. Stream size                              : 16.2 MiB (0%)
  444. Title                                    : Chinese-PGS
  445. Language                                 : Chinese
  446. Default                                  : No
  447. Forced                                   : No

  448. Text #16
  449. ID                                       : 27
  450. Format                                   : PGS
  451. Muxing mode                              : zlib
  452. Codec ID                                 : S_HDMV/PGS
  453. Codec ID/Info                            : Picture based subtitle format used on BDs/HD-DVDs
  454. Duration                                 : 1 h 25 min
  455. Bit rate                                 : 26.2 kb/s
  456. Count of elements                        : 1154
  457. Stream size                              : 16.1 MiB (0%)
  458. Title                                    : Chinese-PGS
  459. Language                                 : Chinese
  460. Default                                  : No
  461. Forced                                   : No

  462. Text #17
  463. ID                                       : 28
  464. Format                                   : PGS
  465. Muxing mode                              : zlib
  466. Codec ID                                 : S_HDMV/PGS
  467. Codec ID/Info                            : Picture based subtitle format used on BDs/HD-DVDs
  468. Duration                                 : 1 h 22 min
  469. Bit rate                                 : 22.6 kb/s
  470. Count of elements                        : 1140
  471. Stream size                              : 13.2 MiB (0%)
  472. Title                                    : Thai-PGS
  473. Language                                 : Thai
  474. Default                                  : No
  475. Forced                                   : No

  476. Menu
  477. 00:00:00.000                             : en:Chapter 01
  478. 00:02:37.824                             : en:Chapter 02
  479. 00:06:06.407                             : en:Chapter 03
  480. 00:09:00.873                             : en:Chapter 04
  481. 00:16:39.790                             : en:Chapter 05
  482. 00:21:12.604                             : en:Chapter 06
  483. 00:24:02.524                             : en:Chapter 07
  484. 00:30:39.838                             : en:Chapter 08
  485. 00:35:47.436                             : en:Chapter 09
  486. 00:42:16.951                             : en:Chapter 10
  487. 00:48:55.891                             : en:Chapter 11
  488. 00:54:47.575                             : en:Chapter 12
  489. 00:58:25.001                             : en:Chapter 13
  490. 01:04:34.745                             : en:Chapter 14
  491. 01:12:38.270                             : en:Chapter 15
  492. 01:19:14.791                             : en:Chapter 16
  493. 01:23:22.998                             : en:Chapter 17
  494. 01:25:40.135                             : en:Chapter 18
  495. 01:27:58.189                             : en:Chapter 19
复制代码

复制代码

疯子 Maniac.1980.REMASTERED.1080p.BluRay.REMUX.AVC.DTS-HD.MA.7.1-FGT 22.20GB-2.png 疯子 Maniac.1980.REMASTERED.1080p.BluRay.REMUX.AVC.DTS-HD.MA.7.1-FGT 22.20GB-3.png 疯子 Maniac.1980.REMASTERED.1080p.BluRay.REMUX.AVC.DTS-HD.MA.7.1-FGT 22.20GB-4.png




回复

使用道具 举报

懒得打字嘛,点击右侧快捷回复 【右侧内容,后台自定义】
您需要登录后才可以回帖 登录 | 立即注册

本版积分规则

QQ|Archiver|手机版|小黑屋|中国高清网 |网站地图

GMT+8, 2019-1-17 12:20 , Processed in 0.226673 second(s), 41 queries .

Powered by HDchina X3.4

Copyright 2017-2018©HDchina.All right reserved

返回顶部 联系我们