你所知道的4K资源这里全部都有 4K电影 | 4K视频 | 4K壁纸 | 4K MV 怎么播放4K视频 | 4K电视演示片

教你玩转4K私人与家庭影院存储 NAS组装 | 黑群辉 家庭/影院Nas论坛

4K家庭影院信号源与视频设备知识 4K蓝光高清播放机 - 那个品牌好? 4K投影机论坛 | 4K电视机论坛

手把手教你搭建属于自己的家庭影院 4K家庭影院案例 | 家庭影院音频 4K家庭影院论坛

查看: 249|回复: 2

[剧情片] 黑色1847 Black.47.2018.1080p.BluRay.REMUX.AVC.DTS-HD.MA.5.1-FGT 22.99GB

[复制链接]

 成长值: 1600

级别:资源管理组

注册时间
2017-10-20
最后登录
2019-6-18
听众
0
收听
0
主题
78701
蓝光币
27000 枚
贡献
3026 点
发表于 2018-12-15 23:58:45 | 显示全部楼层 |阅读模式

黑色1847 Black.47.2018.1080p.BluRay.REMUX.AVC.DTS-HD.MA.5.1-FGT 22.99GB-1.jpg
◎译  名 黑色1847 / The Ranger
◎片  名 黑色1847 Black 47
◎年  代 2018
◎国  家 爱尔兰 / 卢森堡
◎类  别 剧情
◎语  言 英语
◎上映日期 2018-02-16(柏林电影节) / 2018-09-05(爱尔兰)
◎IMDb评分  6.9/10 from 4,130 users
◎IMDb链接  http://www.imdb.com/title/tt3208026/
◎豆瓣评分 7.1/10 from 609 users
◎豆瓣链接 https://movie.douban.com/subject/26935499/
◎片  长 100分钟
◎导  演 兰斯·戴利
◎主  演 雨果·维文
      詹姆斯·弗兰切威勒
      斯蒂芬·瑞
      弗莱迪·福克斯
      巴里·基奥根
      莫·邓福德
      莎拉·格林
      吉姆·布劳德本特
      西伦·格雷斯
      安东尼娅·坎贝尔-休斯
      德尔莫特·克劳利
      艾丹·麦克阿德尔
      基思·麦克利恩
      米特扎·斯迈尔贾尼克

◎简  介 

  1847年,在大饥荒发生两年后,一位叫费尼(詹姆斯·弗兰切威勒 饰)的兵士为英国打完了战争后逃回到爱尔兰,看到一片挣扎与紊乱,发现亲人全数死去,便下定决心复仇。同时英国派出了汉那(雨果·维文 饰)去阻止费尼,而费尼和汉那却又是昔时的战友……


  1. Video
  2. ID                                       : 1
  3. Format                                   : AVC
  4. Format/Info                              : Advanced Video Codec
  5. Format profile                           : [url=/cdn-cgi/l/email-protection][email protected][/url]
  6. Format settings                          : CABAC / 4 Ref Frames
  7. Format settings, CABAC                   : Yes
  8. Format settings, ReFrames                : 4 frames
  9. Codec ID                                 : V_MPEG4/ISO/AVC
  10. Duration                                 : 1 h 39 min
  11. Bit rate mode                            : Constant
  12. Bit rate                                 : 28.0 Mb/s
  13. Nominal bit rate                         : 30.0 Mb/s
  14. Width                                    : 1 920 pixels
  15. Height                                   : 1 080 pixels
  16. Display aspect ratio                     : 16:9
  17. Frame rate mode                          : Constant
  18. Frame rate                               : 24.000 FPS
  19. Standard                                 : NTSC
  20. Color space                              : YUV
  21. Chroma subsampling                       : 4:2:0
  22. Bit depth                                : 8 bits
  23. Scan type                                : Progressive
  24. Bits/(Pixel*Frame)                       : 0.562
  25. Stream size                              : 19.5 GiB (85%)
  26. Title                                    : Black.47.2018.1080p.BluRay.REMUX.AVC.DTS-HD.MA.5.1-FGT
  27. Language                                 : English
  28. Default                                  : No
  29. Forced                                   : No
  30. Color range                              : Limited
  31. Color primaries                          : BT.709
  32. Transfer characteristics                 : BT.709
  33. Matrix coefficients                      : BT.709

  34. Audio #1
  35. ID                                       : 2
  36. Format                                   : DTS XLL
  37. Format/Info                              : Digital Theater Systems
  38. Commercial name                          : DTS-HD Master Audio
  39. Codec ID                                 : A_DTS
  40. Duration                                 : 1 h 39 min
  41. Bit rate mode                            : Variable
  42. Bit rate                                 : 3 512 kb/s
  43. Channel(s)                               : 6 channels
  44. Channel layout                           : C L R Ls Rs LFE
  45. Sampling rate                            : 48.0 kHz
  46. Frame rate                               : 93.750 FPS (512 SPF)
  47. Bit depth                                : 24 bits
  48. Compression mode                         : Lossless
  49. Stream size                              : 2.45 GiB (11%)
  50. Title                                    : Black.47.2018.1080p.BluRay.REMUX.AVC.DTS-HD.MA.5.1-FGT
  51. Language                                 : English
  52. Default                                  : Yes
  53. Forced                                   : No

  54. Audio #2
  55. ID                                       : 3
  56. Format                                   : DTS
  57. Format/Info                              : Digital Theater Systems
  58. Codec ID                                 : A_DTS
  59. Duration                                 : 1 h 39 min
  60. Bit rate mode                            : Constant
  61. Bit rate                                 : 1 509 kb/s
  62. Channel(s)                               : 6 channels
  63. Channel layout                           : C L R Ls Rs LFE
  64. Sampling rate                            : 48.0 kHz
  65. Frame rate                               : 93.750 FPS (512 SPF)
  66. Bit depth                                : 24 bits
  67. Compression mode                         : Lossy
  68. Stream size                              : 1.05 GiB (5%)
  69. Title                                    : Black.47.2018.1080p.BluRay.REMUX.AVC.DTS-HD.MA.5.1-FGT
  70. Language                                 : English
  71. Default                                  : No
  72. Forced                                   : No

  73. Text
  74. ID                                       : 4
  75. Format                                   : PGS
  76. Muxing mode                              : zlib
  77. Codec ID                                 : S_HDMV/PGS
  78. Codec ID/Info                            : Picture based subtitle format used on BDs/HD-DVDs
  79. Duration                                 : 1 h 30 min
  80. Bit rate                                 : 2 836 b/s
  81. Count of elements                        : 280
  82. Stream size                              : 1.84 MiB (0%)
  83. Title                                    : English-PGS
  84. Language                                 : English
  85. Default                                  : Yes
  86. Forced                                   : No

  87. Menu
  88. 00:00:00.000                             : en:Chapter 01
  89. 00:12:40.125                             : en:Chapter 02
  90. 00:28:20.541                             : en:Chapter 03
  91. 00:41:42.666                             : en:Chapter 04
  92. 00:52:51.666                             : en:Chapter 05
  93. 01:07:32.000                             : en:Chapter 06
  94. 01:19:49.541                             : en:Chapter 07
  95. 01:35:51.000                             : en:Chapter 08
复制代码

复制代码

黑色1847 Black.47.2018.1080p.BluRay.REMUX.AVC.DTS-HD.MA.5.1-FGT 22.99GB-2.png 黑色1847 Black.47.2018.1080p.BluRay.REMUX.AVC.DTS-HD.MA.5.1-FGT 22.99GB-3.png 黑色1847 Black.47.2018.1080p.BluRay.REMUX.AVC.DTS-HD.MA.5.1-FGT 22.99GB-4.png



回复

使用道具 举报

级别:群众演员 Lv.3

注册时间
2018-2-11
最后登录
2019-4-12
听众
6
收听
0
主题
0
蓝光币
33 枚
贡献
0 点
QQ
发表于 2018-12-24 21:38:08 | 显示全部楼层

这个帖子不回对不起自己!我想我是一天也不能离开中国高清电影网
回复

使用道具 举报

级别:荣升主角 Lv.5

注册时间
2018-5-27
最后登录
2019-6-18
听众
9
收听
0
主题
0
蓝光币
121 枚
贡献
0 点
发表于 2019-1-11 20:44:49 | 显示全部楼层
感谢分享!
回复

使用道具 举报

*滑动验证:
懒得打字嘛,点击右侧快捷回复 【右侧内容,后台自定义】
您需要登录后才可以回帖 登录 | 立即注册

本版积分规则

QQ|Archiver|手机版|小黑屋| 中国高清网 |网站地图

GMT+8, 2019-6-18 19:18 , Processed in 0.164173 second(s), 45 queries .

Powered by HDchina X3.4

Copyright 2017-2019©HDchina.All right reserved

返回顶部 联系我们