你所知道的4K资源这里全部都有 4K电影 | 4K视频 | 4K壁纸 | 4K MV 怎么播放4K视频 | 4K电视演示片

教你玩转4K私人与家庭影院存储 NAS组装 | 黑群辉 家庭/影院Nas论坛

4K家庭影院信号源与视频设备知识 4K蓝光高清播放机 - 那个品牌好? 4K投影机论坛 | 4K电视机论坛

手把手教你搭建属于自己的家庭影院 4K家庭影院案例 | 家庭影院音频 4K家庭影院论坛

查看: 120|回复: 0

[剧情片] 血染的季节/干燥的白色季节 A.Dry.White.Season.1989.1080p.BluRay.REMUX.AVC.LPCM.2.0-FGT 28.41GB

[复制链接]

 成长值: 1600

级别:资源管理组

注册时间
2017-10-20
最后登录
2019-6-18
听众
0
收听
0
主题
78701
蓝光币
27000 枚
贡献
3026 点
发表于 2018-12-15 23:56:02 | 显示全部楼层 |阅读模式

血染的季节/枯燥的红色季节 A.Dry.White.Season.1989.1080p.BluRay.REMUX.AVC.LPCM.2.0-FGT 28.41GB-1.jpg
◎译  名 血染的季节 / 枯燥的红色季节 / 红色雨季
◎片  名 血染的季节 A Dry White Season
◎年  代 1989
◎国  家 美国
◎类  别 剧情 / 惊悚 / 历史
◎语  言 英语
◎上映日期 1989-11-23
◎IMDb评分  7.0/10 from 4,175 users
◎IMDb链接  http://www.imdb.com/title/tt0097243/
◎豆瓣评分 今朝无人评价
◎豆瓣链接 https://movie.douban.com/subject/1301523/
◎片  长 97 分钟 / West Germany: 107 分钟
◎导  演 尤占·帕尔西
◎主  演 唐纳德·萨瑟兰
      珍妮特·苏兹曼
      扎克·默凯
      尤尔根·普洛斯诺
      苏珊·萨兰登
      马龙·白兰度

◎简  介 

  Ben du Toit is a schoolteacher who always has considered himself a man of caring and justice, at least on the individual level. When his gardeners son is brutally beaten up by the police at a demonstration by black school children, he gradually begins to realize his society is built on a pillar of injustice and exploitation.

◎获奖情况 

  第62届奥斯卡金像奖 (1990)
  最好男配角(提名) 马龙·白兰度

  第3届东京国际电影节 (1989)
  主比赛单元 最好影片(提名) 尤占·帕尔西
  主比赛单元 最好男演员 马龙·白兰度


  1. Video
  2. ID                                       : 1
  3. Format                                   : AVC
  4. Format/Info                              : Advanced Video Codec
  5. Format profile                           : [url=/cdn-cgi/l/email-protection][email protected][/url]
  6. Format settings                          : CABAC / 4 Ref Frames
  7. Format settings, CABAC                   : Yes
  8. Format settings, ReFrames                : 4 frames
  9. Codec ID                                 : V_MPEG4/ISO/AVC
  10. Duration                                 : 1 h 46 min
  11. Bit rate mode                            : Variable
  12. Bit rate                                 : 35.8 Mb/s
  13. Maximum bit rate                         : 37.0 Mb/s
  14. Width                                    : 1 920 pixels
  15. Height                                   : 1 080 pixels
  16. Display aspect ratio                     : 16:9
  17. Frame rate mode                          : Constant
  18. Frame rate                               : 23.976 (24000/1001) FPS
  19. Color space                              : YUV
  20. Chroma subsampling                       : 4:2:0
  21. Bit depth                                : 8 bits
  22. Scan type                                : Progressive
  23. Bits/(Pixel*Frame)                       : 0.720
  24. Stream size                              : 26.7 GiB (94%)
  25. Title                                    : A.Dry.White.Season.1989.1080p.BluRay.REMUX.AVC.LPCM.2.0-FGT
  26. Language                                 : English
  27. Default                                  : No
  28. Forced                                   : No

  29. Audio
  30. ID                                       : 2
  31. Format                                   : PCM
  32. Format settings                          : Little / Signed
  33. Codec ID                                 : A_PCM/INT/LIT
  34. Duration                                 : 1 h 46 min
  35. Bit rate mode                            : Constant
  36. Bit rate                                 : 2 304 kb/s
  37. Channel(s)                               : 2 channels
  38. Sampling rate                            : 48.0 kHz
  39. Frame rate                               : 30.000 FPS (1600 SPF)
  40. Bit depth                                : 24 bits
  41. Stream size                              : 1.72 GiB (6%)
  42. Title                                    : A.Dry.White.Season.1989.1080p.BluRay.REMUX.AVC.LPCM.2.0-FGT
  43. Language                                 : English
  44. Default                                  : Yes
  45. Forced                                   : No

  46. Text
  47. ID                                       : 3
  48. Format                                   : PGS
  49. Muxing mode                              : zlib
  50. Codec ID                                 : S_HDMV/PGS
  51. Codec ID/Info                            : Picture based subtitle format used on BDs/HD-DVDs
  52. Duration                                 : 1 h 46 min
  53. Bit rate                                 : 50.7 kb/s
  54. Count of elements                        : 2912
  55. Stream size                              : 38.6 MiB (0%)
  56. Title                                    : English-PGS
  57. Language                                 : English
  58. Default                                  : Yes
  59. Forced                                   : No

  60. Menu
  61. 00:00:00.000                             : en:Chapter 01
  62. 00:07:33.744                             : en:Chapter 02
  63. 00:13:45.199                             : en:Chapter 03
  64. 00:24:01.273                             : en:Chapter 04
  65. 00:30:32.622                             : en:Chapter 05
  66. 00:40:14.829                             : en:Chapter 06
  67. 00:46:38.921                             : en:Chapter 07
  68. 00:58:39.557                             : en:Chapter 08
  69. 01:01:10.667                             : en:Chapter 09
  70. 01:06:44.166                             : en:Chapter 10
  71. 01:12:50.991                             : en:Chapter 11
  72. 01:21:16.705                             : en:Chapter 12
  73. 01:29:20.271                             : en:Chapter 13
  74. 01:33:40.531                             : en:Chapter 14
  75. 01:37:04.485                             : en:Chapter 15
  76. 01:42:34.481                             : en:Chapter 16
复制代码

复制代码

血染的季节/枯燥的红色季节 A.Dry.White.Season.1989.1080p.BluRay.REMUX.AVC.LPCM.2.0-FGT 28.41GB-2.png 血染的季节/枯燥的红色季节 A.Dry.White.Season.1989.1080p.BluRay.REMUX.AVC.LPCM.2.0-FGT 28.41GB-3.png 血染的季节/枯燥的红色季节 A.Dry.White.Season.1989.1080p.BluRay.REMUX.AVC.LPCM.2.0-FGT 28.41GB-4.png





回复

使用道具 举报

*滑动验证:
懒得打字嘛,点击右侧快捷回复 【右侧内容,后台自定义】
您需要登录后才可以回帖 登录 | 立即注册

本版积分规则

QQ|Archiver|手机版|小黑屋| 中国高清网 |网站地图

GMT+8, 2019-6-18 19:17 , Processed in 0.209925 second(s), 44 queries .

Powered by HDchina X3.4

Copyright 2017-2019©HDchina.All right reserved

返回顶部 联系我们