你所知道的4K资源这里全部都有 4K电影 | 4K视频 | 4K壁纸 | 4K MV 怎么播放4K视频 | 4K电视演示片

教你玩转4K私人与家庭影院存储 NAS组装 | 黑群辉 家庭/影院Nas论坛

4K家庭影院信号源与视频设备知识 4K蓝光高清播放机 - 那个品牌好? 4K投影机论坛 | 4K电视机论坛

手把手教你搭建属于自己的家庭影院 4K家庭影院案例 | 家庭影院音频 4K家庭影院论坛

查看: 39|回复: 2

[剧情片] 柯莱特/科莱特 Colette.2018.1080p.BluRay.REMUX.AVC.DTS-HD.MA.5.1-FGT 32.07GB

[复制链接]

 成长值: 70

级别:资源管理组

UID
1
注册时间
2017-10-20
最后登录
2019-1-17
听众
0
收听
0
主题
73857
蓝光币
114336 枚
贡献
143666 点
发表于 2018-12-15 23:54:57 | 显示全部楼层 |阅读模式

柯莱特/科莱特 Colette.2018.1080p.BluRay.REMUX.AVC.DTS-HD.MA.5.1-FGT 32.07GB-1.jpg
◎译  名 柯莱特 / 科莱特 / 花都教主柯蕾特(台)
◎片  名 柯莱特 Colette
◎年  代 2018
◎国  家 英国 / 美国
◎类  别 剧情 / 列传 / 历史
◎语  言 英语
◎上映日期 2018-01-20(圣丹斯电影节) / 2018-09-21(美国) / 2019-01-25(英国)
◎IMDb评分  6.8/10 from 2,983 users
◎IMDb链接  http://www.imdb.com/title/tt5437928/
◎豆瓣评分 7.6/10 from 1690 users
◎豆瓣链接 https://movie.douban.com/subject/26721646/
◎片  长 111分钟
◎导  演 沃什·韦斯特摩兰
◎主  演 凯拉·奈特莉
      多米尼克·威斯特
      埃莉诺·汤姆林森
      费奥纳·肖
      丹妮斯·高夫
      艾莎·哈特
      丽贝卡·鲁特
      阿尔·韦弗
      卡罗琳·博尔顿
      雷·潘莎基
      珊农·塔伯特
      阿提拉·阿帕
      阿拉贝拉·韦尔
      羽田正义
      罗德里克·希尔
      贾尼娜·哈尼
      凯汀卡·埃格雷斯

◎简  介 

  凯拉·奈特莉(Keira Knightley)将在新片《柯莱特》(Colette)中饰演法国女作家茜多妮·加布里埃尔·柯莱特(Sidonie-Gabrielle Colette),这位作家曾写过《琪琪》(Gigi)等小说,其人生也布满传奇。
  茜多妮·加布里埃尔·柯莱特1873年诞生,曾获得过诺贝尔文学奖提名。她最擅长写
  恋爱小说,1944年的《琪琪》是其最著名的作品,1958年被好莱坞改编成歌舞片《金粉天下》,还获得了奥斯卡最好影片。此外她的另一部小说《谢莉》(Chéri)在2009年也被史蒂芬·弗瑞尔斯(Stephen Frears)改编成电影,由米歇尔·菲佛(Michelle Pfeiffer)主演。
  茜多妮·柯莱特的小我生活很盘曲,曾和一个比她大十四岁的汉子成婚,屡次与人同居。在她阿谁年月,女作家职位很低,而她还是双性恋,在守旧的社会风气下,她的磨难不可思议。
  《柯莱特》计划今年五月份开拍,影片将聚焦柯莱特的年轻时代。

◎获奖情况 

  第34届美国自力精神奖 (2019)
  最好剧本(提名) 沃什·韦斯特摩兰 /  丽贝卡·伦科维茨 /  理查德·格雷泽

  第21届英国自力电影奖 (2018)
  最好男配角(提名) 多米尼克·威斯特
  最好打扮设想(提名)
  最好化装与发型设想(提名)
  最好艺术指导(提名)

  第23届金卫星奖 (2019)
  电影部分 最好原创配乐(提名)
  电影部分 最好打扮设想(提名)


  1. Video
  2. ID                                       : 1
  3. Format                                   : AVC
  4. Format/Info                              : Advanced Video Codec
  5. Format profile                           : [url=/cdn-cgi/l/email-protection][email protected][/url]
  6. Format settings                          : CABAC / 4 Ref Frames
  7. Format settings, CABAC                   : Yes
  8. Format settings, ReFrames                : 4 frames
  9. Format settings, GOP                     : M=3, N=12
  10. Codec ID                                 : V_MPEG4/ISO/AVC
  11. Duration                                 : 1 h 52 min
  12. Bit rate mode                            : Variable
  13. Bit rate                                 : 35.8 Mb/s
  14. Maximum bit rate                         : 40.0 Mb/s
  15. Width                                    : 1 920 pixels
  16. Height                                   : 1 080 pixels
  17. Display aspect ratio                     : 16:9
  18. Frame rate mode                          : Constant
  19. Frame rate                               : 23.976 (24000/1001) FPS
  20. Color space                              : YUV
  21. Chroma subsampling                       : 4:2:0
  22. Bit depth                                : 8 bits
  23. Scan type                                : Progressive
  24. Bits/(Pixel*Frame)                       : 0.720
  25. Stream size                              : 28.0 GiB (87%)
  26. Title                                    : Colette.2018.1080p.BluRay.REMUX.AVC.DTS-HD.MA.5.1-FGT
  27. Language                                 : English
  28. Default                                  : No
  29. Forced                                   : No

  30. Audio #1
  31. ID                                       : 2
  32. Format                                   : DTS XLL
  33. Format/Info                              : Digital Theater Systems
  34. Commercial name                          : DTS-HD Master Audio
  35. Codec ID                                 : A_DTS
  36. Duration                                 : 1 h 52 min
  37. Bit rate mode                            : Variable
  38. Bit rate                                 : 3 426 kb/s
  39. Channel(s)                               : 6 channels
  40. Channel layout                           : C L R Ls Rs LFE
  41. Sampling rate                            : 48.0 kHz
  42. Frame rate                               : 93.750 FPS (512 SPF)
  43. Bit depth                                : 24 bits
  44. Compression mode                         : Lossless
  45. Stream size                              : 2.68 GiB (8%)
  46. Title                                    : Colette.2018.1080p.BluRay.REMUX.AVC.DTS-HD.MA.5.1-FGT
  47. Language                                 : English
  48. Default                                  : Yes
  49. Forced                                   : No

  50. Audio #2
  51. ID                                       : 3
  52. Format                                   : DTS
  53. Format/Info                              : Digital Theater Systems
  54. Codec ID                                 : A_DTS
  55. Duration                                 : 1 h 52 min
  56. Bit rate mode                            : Constant
  57. Bit rate                                 : 1 509 kb/s
  58. Channel(s)                               : 6 channels
  59. Channel layout                           : C L R Ls Rs LFE
  60. Sampling rate                            : 48.0 kHz
  61. Frame rate                               : 93.750 FPS (512 SPF)
  62. Bit depth                                : 24 bits
  63. Compression mode                         : Lossy
  64. Stream size                              : 1.18 GiB (4%)
  65. Title                                    : Colette.2018.1080p.BluRay.REMUX.AVC.DTS-HD.MA.5.1-FGT
  66. Language                                 : English
  67. Default                                  : No
  68. Forced                                   : No

  69. Audio #3
  70. ID                                       : 4
  71. Format                                   : AC-3
  72. Format/Info                              : Audio Coding 3
  73. Commercial name                          : Dolby Digital
  74. Codec ID                                 : A_AC3
  75. Duration                                 : 1 h 52 min
  76. Bit rate mode                            : Constant
  77. Bit rate                                 : 192 kb/s
  78. Channel(s)                               : 2 channels
  79. Channel layout                           : L R
  80. Sampling rate                            : 48.0 kHz
  81. Frame rate                               : 31.250 FPS (1536 SPF)
  82. Bit depth                                : 16 bits
  83. Compression mode                         : Lossy
  84. Stream size                              : 154 MiB (0%)
  85. Title                                    : Colette.2018.1080p.BluRay.REMUX.AVC.DTS-HD.MA.5.1-FGT
  86. Language                                 : English
  87. Service kind                             : Complete Main
  88. Default                                  : No
  89. Forced                                   : No

  90. Text #1
  91. ID                                       : 5
  92. Format                                   : PGS
  93. Muxing mode                              : zlib
  94. Codec ID                                 : S_HDMV/PGS
  95. Codec ID/Info                            : Picture based subtitle format used on BDs/HD-DVDs
  96. Duration                                 : 1 h 42 min
  97. Bit rate                                 : 48.7 kb/s
  98. Count of elements                        : 3029
  99. Stream size                              : 35.9 MiB (0%)
  100. Title                                    : English-PGS
  101. Language                                 : English
  102. Default                                  : Yes
  103. Forced                                   : No

  104. Text #2
  105. ID                                       : 6
  106. Format                                   : PGS
  107. Muxing mode                              : zlib
  108. Codec ID                                 : S_HDMV/PGS
  109. Codec ID/Info                            : Picture based subtitle format used on BDs/HD-DVDs
  110. Duration                                 : 1 h 50 min
  111. Bit rate                                 : 40.6 kb/s
  112. Count of elements                        : 2943
  113. Stream size                              : 32.1 MiB (0%)
  114. Title                                    : Spanish-PGS
  115. Language                                 : Spanish
  116. Default                                  : No
  117. Forced                                   : No

  118. Menu
  119. 00:00:00.000                             : en:Chapter 01
  120. 00:06:46.155                             : en:Chapter 02
  121. 00:12:25.786                             : en:Chapter 03
  122. 00:18:55.467                             : en:Chapter 04
  123. 00:24:20.834                             : en:Chapter 05
  124. 00:29:14.627                             : en:Chapter 06
  125. 00:36:25.600                             : en:Chapter 07
  126. 00:42:02.895                             : en:Chapter 08
  127. 00:48:34.411                             : en:Chapter 09
  128. 00:52:45.745                             : en:Chapter 10
  129. 00:57:36.411                             : en:Chapter 11
  130. 01:02:17.942                             : en:Chapter 12
  131. 01:09:44.930                             : en:Chapter 13
  132. 01:15:22.017                             : en:Chapter 14
  133. 01:19:53.288                             : en:Chapter 15
  134. 01:23:17.200                             : en:Chapter 16
  135. 01:29:26.611                             : en:Chapter 17
  136. 01:35:05.574                             : en:Chapter 18
  137. 01:41:11.231                             : en:Chapter 19
  138. 01:45:15.267                             : en:Chapter 20
复制代码

复制代码

柯莱特/科莱特 Colette.2018.1080p.BluRay.REMUX.AVC.DTS-HD.MA.5.1-FGT 32.07GB-2.png 柯莱特/科莱特 Colette.2018.1080p.BluRay.REMUX.AVC.DTS-HD.MA.5.1-FGT 32.07GB-3.png 柯莱特/科莱特 Colette.2018.1080p.BluRay.REMUX.AVC.DTS-HD.MA.5.1-FGT 32.07GB-4.png





回复

使用道具 举报

级别:初级观众 Lv.1

UID
13099
注册时间
2018-12-27
最后登录
2018-12-27
听众
0
收听
0
主题
0
蓝光币
1 枚
贡献
0 点
QQ
发表于 2018-12-27 15:46:48 | 显示全部楼层

这个帖子不回对不起自己!我想我是一天也不能离开中国高清电影网
回复

使用道具 举报

级别:专业龙套 Lv.4

UID
4064
注册时间
2018-5-27
最后登录
2019-1-13
听众
3
收听
0
主题
0
蓝光币
1 枚
贡献
0 点
发表于 6 天前 | 显示全部楼层
感谢分享!
回复

使用道具 举报

懒得打字嘛,点击右侧快捷回复 【右侧内容,后台自定义】
您需要登录后才可以回帖 登录 | 立即注册

本版积分规则

QQ|Archiver|手机版|小黑屋|中国高清网 |网站地图

GMT+8, 2019-1-17 13:02 , Processed in 0.151765 second(s), 42 queries .

Powered by HDchina X3.4

Copyright 2017-2018©HDchina.All right reserved

返回顶部 联系我们