你所知道的4K资源这里全部都有 4K电影 | 4K视频 | 4K壁纸 | 4K MV 怎么播放4K视频 | 4K电视演示片

教你玩转4K私人与家庭影院存储 NAS组装 | 黑群辉 家庭/影院Nas论坛

4K家庭影院信号源与视频设备知识 4K蓝光高清播放机 - 那个品牌好? 4K投影机论坛 | 4K电视机论坛

手把手教你搭建属于自己的家庭影院 4K家庭影院案例 | 家庭影院音频 4K家庭影院论坛

查看: 956|回复: 22

[REMUX.HEVC] 毒液:致命守护者/毒魔 Venom.2018.2160p.BluRay.REMUX.HEVC.DTS-HD.MA.TrueHD.7.1.Atmos-FGT 53.02GB

[复制链接]

 成长值: 70

级别:资源管理组

UID
1
注册时间
2017-10-20
最后登录
2019-1-17
听众
0
收听
0
主题
73857
蓝光币
114344 枚
贡献
143666 点
发表于 2018-12-11 13:29:56 | 显示全部楼层 |阅读模式
毒液:致命保护者/毒魔 Venom.2018.2160p.BluRay.REMUX.HEVC.DTS-HD.MA.TrueHD.7.1.Atmos-FGT 53.02GB-1.jpg
◎译  名 毒液:致命保护者 / 毒魔(港) / 猛毒(台) / 毒液
◎片  名 毒液:致命保护者 Venom
◎年  代 2018
◎国  家 美国 / 中国大陆
◎类  别 行动 / 科幻 / 惊悚
◎语  言 英语 / 汉语普通话
◎上映日期 2018-11-09(中国大陆) / 2018-10-05(美国)
◎IMDb评分  6.9/10 from 162,275 users
◎IMDb链接  http://www.imdb.com/title/tt1270797/
◎豆瓣评分 7.3/10 from 311485 users
◎豆瓣链接 https://movie.douban.com/subject/3168101/
◎片  长 112分钟 / 107分钟(中国大陆)
◎导  演 鲁本·弗雷斯彻
◎主  演 汤姆·哈迪
      米歇尔·威廉姆斯
      里兹·阿迈德
      斯科特·黑兹
       瑞德·斯科特
      珍妮·斯蕾特
      梅罗拉·沃特斯
      伍迪·哈里森
      佩吉·陆
      马尔科姆·C·默里
      索佩·阿卢科
      韦恩·佩雷
      米歇尔·李
      库尔特·岳
      克里斯·奥哈拉
      埃米里奥·瑞弗拉
      阿里亚当娜·约瑟夫
      袁之正
      朴云龙
      麦克·勃兰特
      尼克·图恩
      山姆·麦地那
      迪塞尔·马德金斯
      简·麦克尼尔
      维克托·麦凯
      马丁·巴特斯·布拉德福德
      布兰顿·莫拉莱斯
      马修·康威尔
      斯坦·李
      韦德·威廉姆斯
      约瑟夫·阿梅
      威廉·W·巴伯
      玛塞拉·布拉吉奥
      卡特·伯奇
      克里斯蒂安·康佛瑞
      詹姆斯·富尔特斯
      丹妮拉·加斯基
      约翰·盖蒂尔
      艾米丽塔·T·冈萨雷斯
      杰克·汉森
      安东尼·B·哈里斯
      卡茜·亨德利
      罗恩·彼得·琼斯
      霍梅洛·洛佩兹
      万恩·姆约维奇

◎简  介 

  艾迪(汤姆·哈迪 Tom Hardy 饰)是一位深受观众爱好的消息记者,和女友安妮(米歇尔·威廉姆斯 Michelle Williams 饰)相恋多年,相互之间豪情非常要好。安妮是一位律师,接手了生命基金会的案件,在女友的邮箱里,艾迪发现了基金会老板德雷克(里兹·阿迈德 Riz Ahmed 饰)不为人知的奥秘。为此,艾迪不但丢了工作,女友也离他而去。
  以后,生命基金会的朵拉博士(珍妮·斯蕾特 Jenny Slate 饰)找到了艾迪,希望艾迪可以帮助她阻止德雷克疯狂的罪行。在生命基金会的尝试室里,艾迪发现了德雷克停止人体尝试的证据,而且在误打误撞当中被外星生命体毒液附身。回抵家后,艾迪和毒液之间构成了共生关系,他们要应对的是德雷克派出的一波又一波杀手。


  1. Video #1
  2. ID                                       : 1
  3. Format                                   : HEVC
  4. Format/Info                              : High Efficiency Video Coding
  5. Commercial name                          : HDR10
  6. Format profile                           : Main [url=/cdn-cgi/l/email-protection][email protected][/url]@High
  7. Codec ID                                 : V_MPEGH/ISO/HEVC
  8. Duration                                 : 1 h 52 min
  9. Bit rate                                 : 53.5 Mb/s
  10. Width                                    : 3 840 pixels
  11. Height                                   : 2 160 pixels
  12. Display aspect ratio                     : 16:9
  13. Frame rate mode                          : Constant
  14. Frame rate                               : 23.976 (24000/1001) FPS
  15. Color space                              : YUV
  16. Chroma subsampling                       : 4:2:0 (Type 2)
  17. Bit depth                                : 10 bits
  18. Bits/(Pixel*Frame)                       : 0.269
  19. Stream size                              : 41.9 GiB (79%)
  20. Title                                    : Venom.2018.2160p.BluRay.REMUX.HEVC.DTS-HD.MA.TrueHD.7.1.Atmos-FGT
  21. Default                                  : Yes
  22. Forced                                   : No
  23. Color range                              : Limited
  24. Color primaries                          : BT.2020
  25. Transfer characteristics                 : PQ
  26. Matrix coefficients                      : BT.2020 non-constant
  27. Mastering display color primaries        : Display P3
  28. Mastering display luminance              : min: 0.0050 cd/m2, max: 4000 cd/m2
  29. Maximum Content Light Level              : 3903 cd/m2
  30. Maximum Frame-Average Light Level        : 1076 cd/m2

  31. Video #2
  32. ID                                       : 2
  33. Format                                   : HEVC
  34. Format/Info                              : High Efficiency Video Coding
  35. Commercial name                          : HDR10
  36. Format profile                           : Main [url=/cdn-cgi/l/email-protection][email protected][/url]@High
  37. Codec ID                                 : V_MPEGH/ISO/HEVC
  38. Duration                                 : 1 h 52 min
  39. Bit rate                                 : 2 085 kb/s
  40. Width                                    : 1 920 pixels
  41. Height                                   : 1 080 pixels
  42. Display aspect ratio                     : 16:9
  43. Frame rate mode                          : Constant
  44. Frame rate                               : 23.976 (24000/1001) FPS
  45. Color space                              : YUV
  46. Chroma subsampling                       : 4:2:0 (Type 2)
  47. Bit depth                                : 10 bits
  48. Bits/(Pixel*Frame)                       : 0.042
  49. Stream size                              : 1.63 GiB (3%)
  50. Title                                    : Venom.2018.2160p.BluRay.REMUX.HEVC.DTS-HD.MA.TrueHD.7.1.Atmos-FGT
  51. Default                                  : No
  52. Forced                                   : No
  53. Color range                              : Limited
  54. Color primaries                          : BT.2020
  55. Transfer characteristics                 : PQ
  56. Matrix coefficients                      : BT.2020 non-constant
  57. Mastering display color primaries        : Display P3
  58. Mastering display luminance              : min: 0.0050 cd/m2, max: 4000 cd/m2

  59. Audio #1
  60. ID                                       : 3
  61. Format                                   : MLP FBA 16-ch
  62. Format/Info                              : Meridian Lossless Packing FBA with 16-channel presentation
  63. Commercial name                          : Dolby TrueHD with Dolby Atmos
  64. Codec ID                                 : A_TRUEHD
  65. Duration                                 : 1 h 52 min
  66. Bit rate mode                            : Variable
  67. Bit rate                                 : 3 212 kb/s
  68. Maximum bit rate                         : 5 394 kb/s
  69. Channel(s)                               : 8 channels
  70. Channel layout                           : L R C LFE Ls Rs Lb Rb
  71. Sampling rate                            : 48.0 kHz
  72. Frame rate                               : 1 200.000 FPS (40 SPF)
  73. Compression mode                         : Lossless
  74. Stream size                              : 2.52 GiB (5%)
  75. Title                                    : Venom.2018.2160p.BluRay.REMUX.HEVC.DTS-HD.MA.TrueHD.7.1.Atmos-FGT
  76. Language                                 : English
  77. Default                                  : Yes
  78. Forced                                   : No
  79. Number of dynamic objects                : 11
  80. Bed channel count                        : 1 channel
  81. Bed channel configuration                : LFE

  82. Audio #2
  83. ID                                       : 4
  84. Format                                   : DTS XLL
  85. Format/Info                              : Digital Theater Systems
  86. Commercial name                          : DTS-HD Master Audio
  87. Codec ID                                 : A_DTS
  88. Duration                                 : 1 h 52 min
  89. Bit rate mode                            : Variable
  90. Bit rate                                 : 3 844 kb/s
  91. Channel(s)                               : 8 channels
  92. Channel layout                           : C L R LFE Lb Rb Lss Rss
  93. Sampling rate                            : 48.0 kHz
  94. Frame rate                               : 93.750 FPS (512 SPF)
  95. Bit depth                                : 24 bits
  96. Compression mode                         : Lossless
  97. Stream size                              : 3.01 GiB (6%)
  98. Title                                    : Venom.2018.2160p.BluRay.REMUX.HEVC.DTS-HD.MA.TrueHD.7.1.Atmos-FGT
  99. Language                                 : English
  100. Default                                  : No
  101. Forced                                   : No

  102. Audio #3
  103. ID                                       : 5
  104. Format                                   : AC-3
  105. Format/Info                              : Audio Coding 3
  106. Commercial name                          : Dolby Digital
  107. Codec ID                                 : A_AC3
  108. Duration                                 : 1 h 52 min
  109. Bit rate mode                            : Constant
  110. Bit rate                                 : 640 kb/s
  111. Channel(s)                               : 6 channels
  112. Channel layout                           : L R C LFE Ls Rs
  113. Sampling rate                            : 48.0 kHz
  114. Frame rate                               : 31.250 FPS (1536 SPF)
  115. Bit depth                                : 16 bits
  116. Compression mode                         : Lossy
  117. Stream size                              : 513 MiB (1%)
  118. Title                                    : Venom.2018.2160p.BluRay.REMUX.HEVC.DTS-HD.MA.TrueHD.7.1.Atmos-FGT
  119. Language                                 : English
  120. Service kind                             : Complete Main
  121. Default                                  : No
  122. Forced                                   : No

  123. Audio #4
  124. ID                                       : 6
  125. Format                                   : AC-3
  126. Format/Info                              : Audio Coding 3
  127. Commercial name                          : Dolby Digital
  128. Codec ID                                 : A_AC3
  129. Duration                                 : 1 h 52 min
  130. Bit rate mode                            : Constant
  131. Bit rate                                 : 640 kb/s
  132. Channel(s)                               : 6 channels
  133. Channel layout                           : L R C LFE Ls Rs
  134. Sampling rate                            : 48.0 kHz
  135. Frame rate                               : 31.250 FPS (1536 SPF)
  136. Bit depth                                : 16 bits
  137. Compression mode                         : Lossy
  138. Stream size                              : 513 MiB (1%)
  139. Title                                    : Venom.2018.2160p.BluRay.REMUX.HEVC.DTS-HD.MA.TrueHD.7.1.Atmos-FGT
  140. Language                                 : English
  141. Service kind                             : Complete Main
  142. Default                                  : No
  143. Forced                                   : No

  144. Audio #5
  145. ID                                       : 7
  146. Format                                   : DTS XLL
  147. Format/Info                              : Digital Theater Systems
  148. Commercial name                          : DTS-HD Master Audio
  149. Codec ID                                 : A_DTS
  150. Duration                                 : 1 h 52 min
  151. Bit rate mode                            : Variable
  152. Bit rate                                 : 2 377 kb/s
  153. Channel(s)                               : 6 channels
  154. Channel layout                           : C L R Ls Rs LFE
  155. Sampling rate                            : 48.0 kHz
  156. Frame rate                               : 93.750 FPS (512 SPF)
  157. Bit depth                                : 16 bits
  158. Compression mode                         : Lossless
  159. Stream size                              : 1.86 GiB (4%)
  160. Title                                    : Venom.2018.2160p.BluRay.REMUX.HEVC.DTS-HD.MA.TrueHD.7.1.Atmos-FGT
  161. Language                                 : French
  162. Default                                  : No
  163. Forced                                   : No

  164. Audio #6
  165. ID                                       : 8
  166. Format                                   : AC-3
  167. Format/Info                              : Audio Coding 3
  168. Commercial name                          : Dolby Digital
  169. Codec ID                                 : A_AC3
  170. Duration                                 : 1 h 52 min
  171. Bit rate mode                            : Constant
  172. Bit rate                                 : 640 kb/s
  173. Channel(s)                               : 6 channels
  174. Channel layout                           : L R C LFE Ls Rs
  175. Sampling rate                            : 48.0 kHz
  176. Frame rate                               : 31.250 FPS (1536 SPF)
  177. Bit depth                                : 16 bits
  178. Compression mode                         : Lossy
  179. Stream size                              : 513 MiB (1%)
  180. Title                                    : Venom.2018.2160p.BluRay.REMUX.HEVC.DTS-HD.MA.TrueHD.7.1.Atmos-FGT
  181. Language                                 : French
  182. Service kind                             : Complete Main
  183. Default                                  : No
  184. Forced                                   : No

  185. Audio #7
  186. ID                                       : 9
  187. Format                                   : AC-3
  188. Format/Info                              : Audio Coding 3
  189. Commercial name                          : Dolby Digital
  190. Codec ID                                 : A_AC3
  191. Duration                                 : 1 h 52 min
  192. Bit rate mode                            : Constant
  193. Bit rate                                 : 640 kb/s
  194. Channel(s)                               : 6 channels
  195. Channel layout                           : L R C LFE Ls Rs
  196. Sampling rate                            : 48.0 kHz
  197. Frame rate                               : 31.250 FPS (1536 SPF)
  198. Bit depth                                : 16 bits
  199. Compression mode                         : Lossy
  200. Stream size                              : 513 MiB (1%)
  201. Title                                    : Venom.2018.2160p.BluRay.REMUX.HEVC.DTS-HD.MA.TrueHD.7.1.Atmos-FGT
  202. Language                                 : Spanish
  203. Service kind                             : Complete Main
  204. Default                                  : No
  205. Forced                                   : No

  206. Text #1
  207. ID                                       : 10
  208. Format                                   : UTF-8
  209. Codec ID                                 : S_TEXT/UTF8
  210. Codec ID/Info                            : UTF-8 Plain Text
  211. Duration                                 : 1 h 49 min
  212. Bit rate                                 : 56 b/s
  213. Count of elements                        : 1470
  214. Stream size                              : 45.6 KiB (0%)
  215. Title                                    : English-SRT
  216. Language                                 : English
  217. Default                                  : Yes
  218. Forced                                   : No

  219. Text #2
  220. ID                                       : 11
  221. Format                                   : UTF-8
  222. Codec ID                                 : S_TEXT/UTF8
  223. Codec ID/Info                            : UTF-8 Plain Text
  224. Duration                                 : 1 h 49 min
  225. Bit rate                                 : 68 b/s
  226. Count of elements                        : 1824
  227. Stream size                              : 55.0 KiB (0%)
  228. Title                                    : English-SDH-SRT
  229. Default                                  : No
  230. Forced                                   : No

  231. Text #3
  232. ID                                       : 12
  233. Format                                   : PGS
  234. Muxing mode                              : zlib
  235. Codec ID                                 : S_HDMV/PGS
  236. Codec ID/Info                            : Picture based subtitle format used on BDs/HD-DVDs
  237. Duration                                 : 1 h 49 min
  238. Bit rate                                 : 44.8 kb/s
  239. Count of elements                        : 3661
  240. Stream size                              : 35.0 MiB (0%)
  241. Title                                    : English-PGS
  242. Language                                 : English
  243. Default                                  : No
  244. Forced                                   : No

  245. Text #4
  246. ID                                       : 13
  247. Format                                   : PGS
  248. Muxing mode                              : zlib
  249. Codec ID                                 : S_HDMV/PGS
  250. Codec ID/Info                            : Picture based subtitle format used on BDs/HD-DVDs
  251. Duration                                 : 1 h 49 min
  252. Bit rate                                 : 32.6 kb/s
  253. Count of elements                        : 2702
  254. Stream size                              : 25.5 MiB (0%)
  255. Title                                    : English-SDH-PGS
  256. Language                                 : English
  257. Default                                  : No
  258. Forced                                   : No

  259. Text #5
  260. ID                                       : 14
  261. Format                                   : PGS
  262. Muxing mode                              : zlib
  263. Codec ID                                 : S_HDMV/PGS
  264. Codec ID/Info                            : Picture based subtitle format used on BDs/HD-DVDs
  265. Duration                                 : 1 h 50 min
  266. Bit rate                                 : 26.1 kb/s
  267. Count of elements                        : 2394
  268. Stream size                              : 20.6 MiB (0%)
  269. Title                                    : French-PGS
  270. Language                                 : French
  271. Default                                  : No
  272. Forced                                   : No

  273. Text #6
  274. ID                                       : 15
  275. Format                                   : PGS
  276. Muxing mode                              : zlib
  277. Codec ID                                 : S_HDMV/PGS
  278. Codec ID/Info                            : Picture based subtitle format used on BDs/HD-DVDs
  279. Duration                                 : 1 h 50 min
  280. Bit rate                                 : 27.6 kb/s
  281. Count of elements                        : 2370
  282. Stream size                              : 21.8 MiB (0%)
  283. Title                                    : Spanish-PGS
  284. Language                                 : Spanish
  285. Default                                  : No
  286. Forced                                   : No

  287. Text #7
  288. ID                                       : 16
  289. Format                                   : PGS
  290. Muxing mode                              : zlib
  291. Codec ID                                 : S_HDMV/PGS
  292. Codec ID/Info                            : Picture based subtitle format used on BDs/HD-DVDs
  293. Duration                                 : 1 h 49 min
  294. Bit rate                                 : 114 b/s
  295. Count of elements                        : 10
  296. Stream size                              : 92.3 KiB (0%)
  297. Title                                    : French-FORCED-PGS
  298. Language                                 : French
  299. Default                                  : No
  300. Forced                                   : No

  301. Menu
  302. 00:00:00.000                             : :Chapter 1
  303. 00:04:43.199                             : :Chapter 2
  304. 00:10:58.074                             : :Chapter 3
  305. 00:17:34.928                             : :Chapter 4
  306. 00:24:05.485                             : :Chapter 5
  307. 00:32:18.811                             : :Chapter 6
  308. 00:40:07.446                             : :Chapter 7
  309. 00:46:51.975                             : :Chapter 8
  310. 00:53:26.203                             : :Chapter 9
  311. 01:00:57.070                             : :Chapter 10
  312. 01:04:01.796                             : :Chapter 11
  313. 01:08:36.445                             : :Chapter 12
  314. 01:11:12.851                             : :Chapter 13
  315. 01:14:15.742                             : :Chapter 14
  316. 01:21:18.748                             : :Chapter 15
  317. 01:27:15.021                             : :Chapter 16
复制代码

复制代码

毒液:致命保护者/毒魔 Venom.2018.2160p.BluRay.REMUX.HEVC.DTS-HD.MA.TrueHD.7.1.Atmos-FGT 53.02GB-2.png 毒液:致命保护者/毒魔 Venom.2018.2160p.BluRay.REMUX.HEVC.DTS-HD.MA.TrueHD.7.1.Atmos-FGT 53.02GB-3.png 毒液:致命保护者/毒魔 Venom.2018.2160p.BluRay.REMUX.HEVC.DTS-HD.MA.TrueHD.7.1.Atmos-FGT 53.02GB-4.png





本帖隐藏的下载地址需要VIP会员才可阅读,您需要升级才可阅读,点击这里升级VIP

回复

使用道具 举报

级别:普通观众 Lv.2

UID
1984
注册时间
2018-3-6
最后登录
2019-1-16
听众
1
收听
0
主题
0
蓝光币
121 枚
贡献
0 点
发表于 2018-12-13 15:14:43 | 显示全部楼层
高清的体积就是大啊
回复

使用道具 举报

级别:初级观众 Lv.1

UID
7186
注册时间
2018-9-20
最后登录
2018-12-15
听众
1
收听
0
主题
0
蓝光币
18 枚
贡献
0 点
QQ
发表于 2018-12-15 09:29:11 | 显示全部楼层
楼主发贴辛苦了,谢谢楼主分享!我觉得中国高清电影网是注册对了!
回复

使用道具 举报

级别:初级观众 Lv.1

UID
12554
注册时间
2018-12-21
最后登录
2019-1-16
听众
0
收听
0
主题
0
蓝光币
9 枚
贡献
0 点
QQ
发表于 2018-12-21 09:31:38 | 显示全部楼层

既然你诚信诚意的推荐了,那我就勉为其难的看看吧!中国高清电影网不走平凡路。
回复

使用道具 举报

级别:初级观众 Lv.1

UID
9282
注册时间
2018-11-1
最后登录
2018-12-26
听众
0
收听
0
主题
0
蓝光币
24 枚
贡献
0 点
发表于 2018-12-22 13:27:24 | 显示全部楼层

楼主太厉害了!楼主,电影应该很好看我觉得中国高清电影网真是个好地方!
回复

使用道具 举报

 成长值: 1135

级别:尊贵的会员

UID
9489
注册时间
2018-11-6
最后登录
2019-1-15
听众
1
收听
0
主题
0
蓝光币
38 枚
贡献
0 点
发表于 2018-12-22 22:21:12 | 显示全部楼层
楼主发贴辛苦了,谢谢楼主分享!我觉得中国高清电影网是注册对了!
回复

使用道具 举报

级别:普通观众 Lv.2

UID
12741
注册时间
2018-12-23
最后登录
2019-1-16
听众
0
收听
0
主题
0
蓝光币
60 枚
贡献
0 点
发表于 2018-12-23 17:06:05 | 显示全部楼层
听闻还不错的电影,可惜我不是VIP啊,不过依然感谢楼主分享
回复

使用道具 举报

级别:初级观众 Lv.1

UID
3847
注册时间
2018-5-19
最后登录
2019-1-16
听众
1
收听
0
主题
0
蓝光币
6 枚
贡献
0 点
发表于 2018-12-24 22:54:04 | 显示全部楼层

这个帖子不回对不起自己!我想我是一天也不能离开中国高清电影网
回复

使用道具 举报

级别:群众演员 Lv.3

UID
8897
注册时间
2018-10-24
最后登录
2019-1-17
听众
2
收听
0
主题
0
蓝光币
66 枚
贡献
0 点
发表于 2018-12-25 10:00:19 | 显示全部楼层

既然你诚信诚意的推荐了,那我就勉为其难的看看吧!中国高清电影网不走平凡路。
回复

使用道具 举报

 成长值: 430

级别:尊贵的会员

UID
12880
注册时间
2018-12-25
最后登录
2019-1-17
听众
0
收听
0
主题
0
蓝光币
47 枚
贡献
0 点
发表于 2018-12-26 01:33:01 | 显示全部楼层

这东西我收了!谢谢楼主!中国高清电影网真好!
回复

使用道具 举报

懒得打字嘛,点击右侧快捷回复 【右侧内容,后台自定义】
您需要登录后才可以回帖 登录 | 立即注册

本版积分规则

QQ|Archiver|手机版|小黑屋|中国高清网 |网站地图

GMT+8, 2019-1-17 13:30 , Processed in 0.210790 second(s), 43 queries .

Powered by HDchina X3.4

Copyright 2017-2018©HDchina.All right reserved

返回顶部 联系我们