你所知道的4K资源这里全部都有 4K电影 | 4K视频 | 4K壁纸 | 4K MV 怎么播放4K视频 | 4K电视演示片

教你玩转4K私人与家庭影院存储 NAS组装 | 黑群辉 家庭/影院Nas论坛

4K家庭影院信号源与视频设备知识 4K蓝光高清播放机 - 那个品牌好? 4K投影机论坛 | 4K电视机论坛

手把手教你搭建属于自己的家庭影院 4K家庭影院案例 | 家庭影院音频 4K家庭影院论坛

查看: 147|回复: 0

[喜剧片] 阶梯下的恶魔/楼下亡魂 The.People.Under.The.Stairs.1991.1080p.BluRay.REMUX.AVC.LPCM.2.0-FGT 30.47GB

[复制链接]

 成长值: 1670

级别:资源管理组

注册时间
2017-10-20
最后登录
2019-6-25
听众
0
收听
0
主题
78745
蓝光币
28950 枚
贡献
3070 点
发表于 2018-12-10 23:57:03 | 显示全部楼层 |阅读模式


◎译  名 门路下的恶魔 / 楼下亡魂 / 饿鬼之家
◎片  名 门路下的恶魔 The People Under the Stairs
◎年  代 1991
◎国  家 美国
◎类  别 笑剧 / 悬疑 / 惊悚 / 可骇
◎语  言 英语
◎上映日期 1991-11-01
◎IMDb评分  6.4/10 from 27,669 users
◎IMDb链接  http://www.imdb.com/title/tt0105121/
◎豆瓣评分 6.8/10 from 579 users
◎豆瓣链接 https://movie.douban.com/subject/1293431/
◎片  长 102 分钟 / Germany: 99 分钟(cut version)
◎导  演 韦斯·克雷文
◎主  演 布兰登·昆恩·亚当斯
      埃沃雷特·麦克吉尔
      Wendy Robie

◎简  介 

  在众多由韦斯.克雷文导演的可骇片当中,本片是取材和蔼概较特别的一部,显现出他的创作野心,但建形成就不承平衡。埃弗里特.麦吉尔和温蒂.罗比饰演一对怪僻邪恶的房东,当十三岁的少年布兰登.陆亚当斯为了他的卧病的母众亲不致被驱离穷户区的住房而来讨情时,竟被房东和他们的女儿拘禁在屋子里加以逼害。此片的故事可以说是一则社会寓言,对那些富人剥削贫民的劣行加以批评,但导演气概在可骇片和寓言片之间晃动不定,偶然更拍出了笑剧结果,相当的复杂,但就文娱性而言还是不错的。


  1. Video
  2. ID                                       : 1
  3. Format                                   : AVC
  4. Format/Info                              : Advanced Video Codec
  5. Format profile                           : [url=/cdn-cgi/l/email-protection][email protected][/url]
  6. Format settings                          : CABAC / 3 Ref Frames
  7. Format settings, CABAC                   : Yes
  8. Format settings, ReFrames                : 3 frames
  9. Codec ID                                 : V_MPEG4/ISO/AVC
  10. Duration                                 : 1 h 41 min
  11. Bit rate mode                            : Variable
  12. Bit rate                                 : 37.0 Mb/s
  13. Width                                    : 1 920 pixels
  14. Height                                   : 1 080 pixels
  15. Display aspect ratio                     : 16:9
  16. Frame rate mode                          : Constant
  17. Frame rate                               : 23.976 (24000/1001) FPS
  18. Standard                                 : NTSC
  19. Color space                              : YUV
  20. Chroma subsampling                       : 4:2:0
  21. Bit depth                                : 8 bits
  22. Scan type                                : Progressive
  23. Bits/(Pixel*Frame)                       : 0.744
  24. Stream size                              : 26.1 GiB (86%)
  25. Title                                    : The.People.Under.The.Stairs.1991.1080p.BluRay.REMUX.AVC.LPCM.2.0-FGT
  26. Writing library                          : x264pro - Adobe CS Exporter Plug-in
  27. Encoding settings                        : cabac=1 / ref=4 / deblock=1:-2:-2 / analyse=0x3:0x113 / me=umh / subme=9 / psy=1 / psy_rd=1.00:0.25 / mixed_ref=1 / me_range=16 / chroma_me=1 / trellis=1 / 8x8dct=1 / cqm=0 / deadzone=6,6 / fast_pskip=1 / chroma_qp_offset=-4 / threads=16 / lookahead_threads=2 / sliced_threads=0 / slices=4 / nr=0 / decimate=0 / interlaced=0 / bluray_compat=1 / constrained_intra=0 / bframes=3 / b_pyramid=1 / b_adapt=2 / b_bias=0 / direct=3 / weightb=1 / open_gop=0 / weightp=1 / keyint=24 / keyint_min=1 / scenecut=40 / intra_refresh=0 / rc_lookahead=24 / rc=crf / mbtree=1 / crf=1.0 / qcomp=0.80 / qpmin=0 / qpmax=69 / qpstep=4 / vbv_maxrate=37000 / vbv_bufsize=30000 / crf_max=0.0 / nal_hrd=vbr / ip_ratio=1.10 / aq=1:0.50
  28. Language                                 : English
  29. Default                                  : No
  30. Forced                                   : No
  31. Color range                              : Limited
  32. Color primaries                          : BT.709
  33. Transfer characteristics                 : BT.709
  34. Matrix coefficients                      : BT.709

  35. Audio #1
  36. ID                                       : 2
  37. Format                                   : PCM
  38. Format settings                          : Little / Signed
  39. Codec ID                                 : A_PCM/INT/LIT
  40. Duration                                 : 1 h 41 min
  41. Bit rate mode                            : Constant
  42. Bit rate                                 : 1 536 kb/s
  43. Channel(s)                               : 2 channels
  44. Sampling rate                            : 48.0 kHz
  45. Frame rate                               : 30.000 FPS (1600 SPF)
  46. Bit depth                                : 16 bits
  47. Stream size                              : 1.09 GiB (4%)
  48. Title                                    : The.People.Under.The.Stairs.1991.1080p.BluRay.REMUX.AVC.LPCM.2.0-FGT
  49. Language                                 : English
  50. Default                                  : Yes
  51. Forced                                   : No

  52. Audio #2
  53. ID                                       : 3
  54. Format                                   : PCM
  55. Format settings                          : Little / Signed
  56. Codec ID                                 : A_PCM/INT/LIT
  57. Duration                                 : 1 h 41 min
  58. Bit rate mode                            : Constant
  59. Bit rate                                 : 1 536 kb/s
  60. Channel(s)                               : 2 channels
  61. Sampling rate                            : 48.0 kHz
  62. Frame rate                               : 30.000 FPS (1600 SPF)
  63. Bit depth                                : 16 bits
  64. Stream size                              : 1.09 GiB (4%)
  65. Title                                    : The.People.Under.The.Stairs.1991.1080p.BluRay.REMUX.AVC.LPCM.2.0-FGT
  66. Language                                 : English
  67. Default                                  : No
  68. Forced                                   : No

  69. Audio #3
  70. ID                                       : 4
  71. Format                                   : PCM
  72. Format settings                          : Little / Signed
  73. Codec ID                                 : A_PCM/INT/LIT
  74. Duration                                 : 1 h 41 min
  75. Bit rate mode                            : Constant
  76. Bit rate                                 : 1 536 kb/s
  77. Channel(s)                               : 2 channels
  78. Sampling rate                            : 48.0 kHz
  79. Frame rate                               : 30.000 FPS (1600 SPF)
  80. Bit depth                                : 16 bits
  81. Stream size                              : 1.09 GiB (4%)
  82. Title                                    : The.People.Under.The.Stairs.1991.1080p.BluRay.REMUX.AVC.LPCM.2.0-FGT
  83. Language                                 : English
  84. Default                                  : No
  85. Forced                                   : No

  86. Audio #4
  87. ID                                       : 5
  88. Format                                   : PCM
  89. Format settings                          : Little / Signed
  90. Codec ID                                 : A_PCM/INT/LIT
  91. Duration                                 : 1 h 41 min
  92. Bit rate mode                            : Constant
  93. Bit rate                                 : 1 536 kb/s
  94. Channel(s)                               : 2 channels
  95. Sampling rate                            : 48.0 kHz
  96. Frame rate                               : 30.000 FPS (1600 SPF)
  97. Bit depth                                : 16 bits
  98. Stream size                              : 1.09 GiB (4%)
  99. Title                                    : The.People.Under.The.Stairs.1991.1080p.BluRay.REMUX.AVC.LPCM.2.0-FGT
  100. Language                                 : English
  101. Default                                  : No
  102. Forced                                   : No

  103. Text
  104. ID                                       : 6
  105. Format                                   : PGS
  106. Muxing mode                              : zlib
  107. Codec ID                                 : S_HDMV/PGS
  108. Codec ID/Info                            : Picture based subtitle format used on BDs/HD-DVDs
  109. Duration                                 : 1 h 36 min
  110. Bit rate                                 : 24.3 kb/s
  111. Count of elements                        : 1746
  112. Stream size                              : 16.8 MiB (0%)
  113. Title                                    : English-PGS
  114. Language                                 : English
  115. Default                                  : Yes
  116. Forced                                   : No

  117. Menu
  118. 00:00:00.000                             : en:Chapter 01
  119. 00:05:15.732                             : en:Chapter 02
  120. 00:11:29.855                             : en:Chapter 03
  121. 00:17:17.995                             : en:Chapter 04
  122. 00:21:50.809                             : en:Chapter 05
  123. 00:29:58.838                             : en:Chapter 06
  124. 00:34:21.225                             : en:Chapter 07
  125. 00:41:24.857                             : en:Chapter 08
  126. 00:48:53.430                             : en:Chapter 09
  127. 00:54:09.704                             : en:Chapter 10
  128. 01:01:06.954                             : en:Chapter 11
  129. 01:06:10.967                             : en:Chapter 12
  130. 01:16:05.310                             : en:Chapter 13
  131. 01:22:40.330                             : en:Chapter 14
  132. 01:30:03.731                             : en:Chapter 15
  133. 01:38:23.522                             : en:Chapter 16
  134. 01:41:56.735                             : en:Chapter 17
复制代码

复制代码

门路下的恶魔/楼下亡魂 The.People.Under.The.Stairs.1991.1080p.BluRay.REMUX.AVC.LPCM.2.0-FGT 30.47GB-2.png 门路下的恶魔/楼下亡魂 The.People.Under.The.Stairs.1991.1080p.BluRay.REMUX.AVC.LPCM.2.0-FGT 30.47GB-3.png 门路下的恶魔/楼下亡魂 The.People.Under.The.Stairs.1991.1080p.BluRay.REMUX.AVC.LPCM.2.0-FGT 30.47GB-4.png





回复

使用道具 举报

*滑动验证:
懒得打字嘛,点击右侧快捷回复 【右侧内容,后台自定义】
您需要登录后才可以回帖 登录 | 立即注册

本版积分规则

QQ|Archiver|手机版|小黑屋| 中国高清网 |网站地图

GMT+8, 2019-6-25 01:39 , Processed in 0.175669 second(s), 46 queries .

Powered by HDchina X3.4

Copyright 2017-2019©HDchina.All right reserved

返回顶部 联系我们