你所知道的4K资源这里全部都有 4K电影 | 4K视频 | 4K壁纸 | 4K MV 怎么播放4K视频 | 4K电视演示片

教你玩转4K私人与家庭影院存储 NAS组装 | 黑群辉 家庭/影院Nas论坛

4K家庭影院信号源与视频设备知识 4K蓝光高清播放机 - 那个品牌好? 4K投影机论坛 | 4K电视机论坛

手把手教你搭建属于自己的家庭影院 4K家庭影院案例 | 家庭影院音频 4K家庭影院论坛

查看: 318|回复: 6

[科幻片] 毒液:致命守护者/毒魔 Venom.2018.1080p.BluRay.REMUX.AVC.DTS-HD.MA.TrueHD.7.1.Atmos-FGT 35.37GB

[复制链接]

 成长值: 710

级别:资源管理组

注册时间
2017-10-20
最后登录
2019-3-22
听众
0
收听
0
主题
76497
蓝光币
134743 枚
贡献
146306 点
发表于 2018-12-10 23:56:04 | 显示全部楼层 |阅读模式

毒液:致命保护者/毒魔 Venom.2018.1080p.BluRay.REMUX.AVC.DTS-HD.MA.TrueHD.7.1.Atmos-FGT 35.37GB-1.jpg
◎译  名 毒液:致命保护者 / 毒魔(港) / 猛毒(台) / 毒液
◎片  名 毒液:致命保护者 Venom
◎年  代 2018
◎国  家 美国 / 中国大陆
◎类  别 行动 / 科幻 / 惊悚
◎语  言 英语 / 汉语普通话
◎上映日期 2018-11-09(中国大陆) / 2018-10-05(美国)
◎IMDb评分  6.9/10 from 160,853 users
◎IMDb链接  http://www.imdb.com/title/tt1270797/
◎豆瓣评分 7.3/10 from 309787 users
◎豆瓣链接 https://movie.douban.com/subject/3168101/
◎片  长 112分钟 / 107分钟(中国大陆)
◎导  演 鲁本·弗雷斯彻
◎主  演 汤姆·哈迪
      米歇尔·威廉姆斯
      里兹·阿迈德
      斯科特·黑兹
       瑞德·斯科特
      珍妮·斯蕾特
      梅罗拉·沃特斯
      伍迪·哈里森
      佩吉·陆
      马尔科姆·C·默里
      索佩·阿卢科
      韦恩·佩雷
      米歇尔·李
      库尔特·岳
      克里斯·奥哈拉
      埃米里奥·瑞弗拉
      阿里亚当娜·约瑟夫
      袁之正
      朴云龙
      麦克·勃兰特
      尼克·图恩
      山姆·麦地那
      迪塞尔·马德金斯
      简·麦克尼尔
      维克托·麦凯
      马丁·巴特斯·布拉德福德
      布兰顿·莫拉莱斯
      马修·康威尔
      斯坦·李
      韦德·威廉姆斯
      约瑟夫·阿梅
      威廉·W·巴伯
      玛塞拉·布拉吉奥
      卡特·伯奇
      克里斯蒂安·康佛瑞
      詹姆斯·富尔特斯
      丹妮拉·加斯基
      约翰·盖蒂尔
      艾米丽塔·T·冈萨雷斯
      杰克·汉森
      安东尼·B·哈里斯
      卡茜·亨德利
      罗恩·彼得·琼斯
      霍梅洛·洛佩兹
      万恩·姆约维奇

◎简  介 

  艾迪(汤姆·哈迪 Tom Hardy 饰)是一位深受观众爱好的消息记者,和女友安妮(米歇尔·威廉姆斯 Michelle Williams 饰)相恋多年,相互之间豪情非常要好。安妮是一位律师,接手了生命基金会的案件,在女友的邮箱里,艾迪发现了基金会老板德雷克(里兹·阿迈德 Riz Ahmed 饰)不为人知的奥秘。为此,艾迪不但丢了工作,女友也离他而去。
  以后,生命基金会的朵拉博士(珍妮·斯蕾特 Jenny Slate 饰)找到了艾迪,希望艾迪可以帮助她阻止德雷克疯狂的罪行。在生命基金会的尝试室里,艾迪发现了德雷克停止人体尝试的证据,而且在误打误撞当中被外星生命体毒液附身。回抵家后,艾迪和毒液之间构成了共生关系,他们要应对的是德雷克派出的一波又一波杀手。


  1. Video
  2. ID                                       : 1
  3. Format                                   : AVC
  4. Format/Info                              : Advanced Video Codec
  5. Format profile                           : [url=/cdn-cgi/l/email-protection][email protected][/url]
  6. Format settings                          : CABAC / 2 Ref Frames
  7. Format settings, CABAC                   : Yes
  8. Format settings, ReFrames                : 2 frames
  9. Format settings, GOP                     : M=1, N=10
  10. Codec ID                                 : V_MPEG4/ISO/AVC
  11. Duration                                 : 1 h 52 min
  12. Bit rate mode                            : Variable
  13. Bit rate                                 : 30.0 Mb/s
  14. Width                                    : 1 920 pixels
  15. Height                                   : 1 080 pixels
  16. Display aspect ratio                     : 16:9
  17. Frame rate mode                          : Constant
  18. Frame rate                               : 23.976 (24000/1001) FPS
  19. Color space                              : YUV
  20. Chroma subsampling                       : 4:2:0
  21. Bit depth                                : 8 bits
  22. Scan type                                : Progressive
  23. Bits/(Pixel*Frame)                       : 0.603
  24. Stream size                              : 23.5 GiB (66%)
  25. Title                                    : Venom.2018.1080p.BluRay.REMUX.AVC.DTS-HD.MA.TrueHD.7.1.Atmos-FGT
  26. Language                                 : English
  27. Default                                  : No
  28. Forced                                   : No

  29. Audio #1
  30. ID                                       : 2
  31. Format                                   : MLP FBA 16-ch
  32. Format/Info                              : Meridian Lossless Packing FBA with 16-channel presentation
  33. Commercial name                          : Dolby TrueHD with Dolby Atmos
  34. Codec ID                                 : A_TRUEHD
  35. Duration                                 : 1 h 52 min
  36. Bit rate mode                            : Variable
  37. Bit rate                                 : 3 212 kb/s
  38. Maximum bit rate                         : 5 394 kb/s
  39. Channel(s)                               : 8 channels
  40. Channel layout                           : L R C LFE Ls Rs Lb Rb
  41. Sampling rate                            : 48.0 kHz
  42. Frame rate                               : 1 200.000 FPS (40 SPF)
  43. Compression mode                         : Lossless
  44. Stream size                              : 2.52 GiB (7%)
  45. Title                                    : Venom.2018.1080p.BluRay.REMUX.AVC.DTS-HD.MA.TrueHD.7.1.Atmos-FGT
  46. Language                                 : English
  47. Default                                  : Yes
  48. Forced                                   : No
  49. Number of dynamic objects                : 11
  50. Bed channel count                        : 1 channel
  51. Bed channel configuration                : LFE

  52. Audio #2
  53. ID                                       : 3
  54. Format                                   : DTS XLL
  55. Format/Info                              : Digital Theater Systems
  56. Commercial name                          : DTS-HD Master Audio
  57. Codec ID                                 : A_DTS
  58. Duration                                 : 1 h 52 min
  59. Bit rate mode                            : Variable
  60. Bit rate                                 : 3 844 kb/s
  61. Channel(s)                               : 8 channels
  62. Channel layout                           : C L R LFE Lb Rb Lss Rss
  63. Sampling rate                            : 48.0 kHz
  64. Frame rate                               : 93.750 FPS (512 SPF)
  65. Bit depth                                : 24 bits
  66. Compression mode                         : Lossless
  67. Stream size                              : 3.01 GiB (9%)
  68. Title                                    : Venom.2018.1080p.BluRay.REMUX.AVC.DTS-HD.MA.TrueHD.7.1.Atmos-FGT
  69. Language                                 : English
  70. Default                                  : No
  71. Forced                                   : No

  72. Audio #3
  73. ID                                       : 4
  74. Format                                   : AC-3
  75. Format/Info                              : Audio Coding 3
  76. Commercial name                          : Dolby Digital
  77. Codec ID                                 : A_AC3
  78. Duration                                 : 1 h 52 min
  79. Bit rate mode                            : Constant
  80. Bit rate                                 : 640 kb/s
  81. Channel(s)                               : 6 channels
  82. Channel layout                           : L R C LFE Ls Rs
  83. Sampling rate                            : 48.0 kHz
  84. Frame rate                               : 31.250 FPS (1536 SPF)
  85. Bit depth                                : 16 bits
  86. Compression mode                         : Lossy
  87. Stream size                              : 513 MiB (1%)
  88. Title                                    : Venom.2018.1080p.BluRay.REMUX.AVC.DTS-HD.MA.TrueHD.7.1.Atmos-FGT
  89. Language                                 : English
  90. Service kind                             : Complete Main
  91. Default                                  : No
  92. Forced                                   : No

  93. Audio #4
  94. ID                                       : 5
  95. Format                                   : DTS
  96. Format/Info                              : Digital Theater Systems
  97. Codec ID                                 : A_DTS
  98. Duration                                 : 1 h 52 min
  99. Bit rate mode                            : Constant
  100. Bit rate                                 : 1 509 kb/s
  101. Channel(s)                               : 6 channels
  102. Channel layout                           : C L R Ls Rs LFE
  103. Sampling rate                            : 48.0 kHz
  104. Frame rate                               : 93.750 FPS (512 SPF)
  105. Bit depth                                : 16 bits
  106. Compression mode                         : Lossy
  107. Stream size                              : 1.18 GiB (3%)
  108. Title                                    : Venom.2018.1080p.BluRay.REMUX.AVC.DTS-HD.MA.TrueHD.7.1.Atmos-FGT
  109. Language                                 : English
  110. Default                                  : No
  111. Forced                                   : No

  112. Audio #5
  113. ID                                       : 6
  114. Format                                   : AC-3
  115. Format/Info                              : Audio Coding 3
  116. Commercial name                          : Dolby Digital
  117. Codec ID                                 : A_AC3
  118. Duration                                 : 1 h 52 min
  119. Bit rate mode                            : Constant
  120. Bit rate                                 : 640 kb/s
  121. Channel(s)                               : 6 channels
  122. Channel layout                           : L R C LFE Ls Rs
  123. Sampling rate                            : 48.0 kHz
  124. Frame rate                               : 31.250 FPS (1536 SPF)
  125. Bit depth                                : 16 bits
  126. Compression mode                         : Lossy
  127. Stream size                              : 513 MiB (1%)
  128. Title                                    : Venom.2018.1080p.BluRay.REMUX.AVC.DTS-HD.MA.TrueHD.7.1.Atmos-FGT
  129. Language                                 : English
  130. Service kind                             : Complete Main
  131. Default                                  : No
  132. Forced                                   : No

  133. Audio #6
  134. ID                                       : 7
  135. Format                                   : DTS XLL
  136. Format/Info                              : Digital Theater Systems
  137. Commercial name                          : DTS-HD Master Audio
  138. Codec ID                                 : A_DTS
  139. Duration                                 : 1 h 52 min
  140. Bit rate mode                            : Variable
  141. Bit rate                                 : 2 377 kb/s
  142. Channel(s)                               : 6 channels
  143. Channel layout                           : C L R Ls Rs LFE
  144. Sampling rate                            : 48.0 kHz
  145. Frame rate                               : 93.750 FPS (512 SPF)
  146. Bit depth                                : 16 bits
  147. Compression mode                         : Lossless
  148. Stream size                              : 1.86 GiB (5%)
  149. Title                                    : Venom.2018.1080p.BluRay.REMUX.AVC.DTS-HD.MA.TrueHD.7.1.Atmos-FGT
  150. Language                                 : French
  151. Default                                  : No
  152. Forced                                   : No

  153. Audio #7
  154. ID                                       : 8
  155. Format                                   : DTS
  156. Format/Info                              : Digital Theater Systems
  157. Codec ID                                 : A_DTS
  158. Duration                                 : 1 h 52 min
  159. Bit rate mode                            : Constant
  160. Bit rate                                 : 1 509 kb/s
  161. Channel(s)                               : 6 channels
  162. Channel layout                           : C L R Ls Rs LFE
  163. Sampling rate                            : 48.0 kHz
  164. Frame rate                               : 93.750 FPS (512 SPF)
  165. Bit depth                                : 16 bits
  166. Compression mode                         : Lossy
  167. Stream size                              : 1.18 GiB (3%)
  168. Title                                    : Venom.2018.1080p.BluRay.REMUX.AVC.DTS-HD.MA.TrueHD.7.1.Atmos-FGT
  169. Language                                 : French
  170. Default                                  : No
  171. Forced                                   : No

  172. Audio #8
  173. ID                                       : 9
  174. Format                                   : AC-3
  175. Format/Info                              : Audio Coding 3
  176. Commercial name                          : Dolby Digital
  177. Codec ID                                 : A_AC3
  178. Duration                                 : 1 h 52 min
  179. Bit rate mode                            : Constant
  180. Bit rate                                 : 640 kb/s
  181. Channel(s)                               : 6 channels
  182. Channel layout                           : L R C LFE Ls Rs
  183. Sampling rate                            : 48.0 kHz
  184. Frame rate                               : 31.250 FPS (1536 SPF)
  185. Bit depth                                : 16 bits
  186. Compression mode                         : Lossy
  187. Stream size                              : 513 MiB (1%)
  188. Title                                    : Venom.2018.1080p.BluRay.REMUX.AVC.DTS-HD.MA.TrueHD.7.1.Atmos-FGT
  189. Language                                 : French
  190. Service kind                             : Complete Main
  191. Default                                  : No
  192. Forced                                   : No

  193. Audio #9
  194. ID                                       : 10
  195. Format                                   : AC-3
  196. Format/Info                              : Audio Coding 3
  197. Commercial name                          : Dolby Digital
  198. Codec ID                                 : A_AC3
  199. Duration                                 : 1 h 52 min
  200. Bit rate mode                            : Constant
  201. Bit rate                                 : 640 kb/s
  202. Channel(s)                               : 6 channels
  203. Channel layout                           : L R C LFE Ls Rs
  204. Sampling rate                            : 48.0 kHz
  205. Frame rate                               : 31.250 FPS (1536 SPF)
  206. Bit depth                                : 16 bits
  207. Compression mode                         : Lossy
  208. Stream size                              : 513 MiB (1%)
  209. Title                                    : Venom.2018.1080p.BluRay.REMUX.AVC.DTS-HD.MA.TrueHD.7.1.Atmos-FGT
  210. Language                                 : Spanish
  211. Service kind                             : Complete Main
  212. Default                                  : No
  213. Forced                                   : No

  214. Text #1
  215. ID                                       : 11
  216. Format                                   : UTF-8
  217. Codec ID                                 : S_TEXT/UTF8
  218. Codec ID/Info                            : UTF-8 Plain Text
  219. Duration                                 : 1 h 49 min
  220. Bit rate                                 : 55 b/s
  221. Count of elements                        : 1351
  222. Stream size                              : 44.1 KiB (0%)
  223. Title                                    : English-SRT
  224. Language                                 : English
  225. Default                                  : Yes
  226. Forced                                   : No

  227. Text #2
  228. ID                                       : 12
  229. Format                                   : PGS
  230. Muxing mode                              : zlib
  231. Codec ID                                 : S_HDMV/PGS
  232. Codec ID/Info                            : Picture based subtitle format used on BDs/HD-DVDs
  233. Duration                                 : 1 h 49 min
  234. Bit rate                                 : 44.9 kb/s
  235. Count of elements                        : 3663
  236. Stream size                              : 35.1 MiB (0%)
  237. Title                                    : English-PGS
  238. Language                                 : English
  239. Default                                  : No
  240. Forced                                   : No

  241. Text #3
  242. ID                                       : 13
  243. Format                                   : PGS
  244. Muxing mode                              : zlib
  245. Codec ID                                 : S_HDMV/PGS
  246. Codec ID/Info                            : Picture based subtitle format used on BDs/HD-DVDs
  247. Duration                                 : 1 h 49 min
  248. Bit rate                                 : 32.7 kb/s
  249. Count of elements                        : 2707
  250. Stream size                              : 25.5 MiB (0%)
  251. Title                                    : English-SDH-PGS
  252. Language                                 : English
  253. Default                                  : No
  254. Forced                                   : No

  255. Text #4
  256. ID                                       : 14
  257. Format                                   : PGS
  258. Muxing mode                              : zlib
  259. Codec ID                                 : S_HDMV/PGS
  260. Codec ID/Info                            : Picture based subtitle format used on BDs/HD-DVDs
  261. Duration                                 : 1 h 50 min
  262. Bit rate                                 : 26.2 kb/s
  263. Count of elements                        : 2400
  264. Stream size                              : 20.8 MiB (0%)
  265. Title                                    : French-PGS
  266. Language                                 : French
  267. Default                                  : No
  268. Forced                                   : No

  269. Text #5
  270. ID                                       : 15
  271. Format                                   : PGS
  272. Muxing mode                              : zlib
  273. Codec ID                                 : S_HDMV/PGS
  274. Codec ID/Info                            : Picture based subtitle format used on BDs/HD-DVDs
  275. Duration                                 : 1 h 50 min
  276. Bit rate                                 : 27.7 kb/s
  277. Count of elements                        : 2375
  278. Stream size                              : 21.9 MiB (0%)
  279. Title                                    : Spanish-PGS
  280. Language                                 : Spanish
  281. Default                                  : No
  282. Forced                                   : No

  283. Text #6
  284. ID                                       : 16
  285. Format                                   : PGS
  286. Muxing mode                              : zlib
  287. Codec ID                                 : S_HDMV/PGS
  288. Codec ID/Info                            : Picture based subtitle format used on BDs/HD-DVDs
  289. Duration                                 : 1 h 49 min
  290. Bit rate                                 : 76 b/s
  291. Count of elements                        : 8
  292. Stream size                              : 61.3 KiB (0%)
  293. Title                                    : Spanish-FORCED-PGS
  294. Language                                 : Spanish
  295. Default                                  : No
  296. Forced                                   : No

  297. Text #7
  298. ID                                       : 17
  299. Format                                   : PGS
  300. Muxing mode                              : zlib
  301. Codec ID                                 : S_HDMV/PGS
  302. Codec ID/Info                            : Picture based subtitle format used on BDs/HD-DVDs
  303. Duration                                 : 1 h 49 min
  304. Bit rate                                 : 114 b/s
  305. Count of elements                        : 10
  306. Stream size                              : 92.3 KiB (0%)
  307. Title                                    : French-FORCED-PGS
  308. Language                                 : French
  309. Default                                  : No
  310. Forced                                   : No

  311. Text #8
  312. ID                                       : 18
  313. Format                                   : PGS
  314. Muxing mode                              : zlib
  315. Codec ID                                 : S_HDMV/PGS
  316. Codec ID/Info                            : Picture based subtitle format used on BDs/HD-DVDs
  317. Duration                                 : 1 h 49 min
  318. Bit rate                                 : 114 b/s
  319. Count of elements                        : 10
  320. Stream size                              : 92.3 KiB (0%)
  321. Title                                    : French-FORCED-PGS
  322. Language                                 : French
  323. Default                                  : No
  324. Forced                                   : No

  325. Menu
  326. 00:00:00.000                             : en:Chapter 01
  327. 00:02:34.946                             : en:Chapter 02
  328. 00:02:59.888                             : en:Chapter 03
  329. 00:03:33.755                             : en:Chapter 04
  330. 00:03:52.607                             : en:Chapter 05
  331. 00:06:01.819                             : en:Chapter 06
  332. 00:09:31.779                             : en:Chapter 07
  333. 00:11:06.666                             : en:Chapter 08
  334. 00:15:12.286                             : en:Chapter 09
  335. 00:15:29.887                             : en:Chapter 10
  336. 00:16:35.077                             : en:Chapter 11
  337. 00:26:24.291                             : en:Chapter 12
  338. 00:32:45.755                             : en:Chapter 13
  339. 00:35:32.630                             : en:Chapter 14
  340. 00:36:10.751                             : en:Chapter 15
  341. 00:36:32.565                             : en:Chapter 16
  342. 00:37:14.106                             : en:Chapter 17
  343. 00:46:51.266                             : en:Chapter 18
  344. 00:48:13.640                             : en:Chapter 19
  345. 00:53:37.297                             : en:Chapter 20
  346. 00:54:21.466                             : en:Chapter 21
  347. 00:54:30.141                             : en:Chapter 22
  348. 00:55:26.197                             : en:Chapter 23
  349. 00:56:18.875                             : en:Chapter 24
  350. 00:56:43.024                             : en:Chapter 25
  351. 00:57:01.459                             : en:Chapter 26
  352. 00:58:54.739                             : en:Chapter 27
  353. 00:59:04.457                             : en:Chapter 28
  354. 01:00:37.008                             : en:Chapter 29
  355. 01:05:59.330                             : en:Chapter 30
  356. 01:07:36.719                             : en:Chapter 31
  357. 01:17:37.861                             : en:Chapter 32
  358. 01:23:12.070                             : en:Chapter 33
  359. 01:23:24.916                             : en:Chapter 34
  360. 01:24:13.798                             : en:Chapter 35
  361. 01:27:21.444                             : en:Chapter 36
复制代码

复制代码

毒液:致命保护者/毒魔 Venom.2018.1080p.BluRay.REMUX.AVC.DTS-HD.MA.TrueHD.7.1.Atmos-FGT 35.37GB-2.png 毒液:致命保护者/毒魔 Venom.2018.1080p.BluRay.REMUX.AVC.DTS-HD.MA.TrueHD.7.1.Atmos-FGT 35.37GB-3.png 毒液:致命保护者/毒魔 Venom.2018.1080p.BluRay.REMUX.AVC.DTS-HD.MA.TrueHD.7.1.Atmos-FGT 35.37GB-4.png





本帖隐藏的下载地址需要VIP会员才可阅读,您需要升级才可阅读,点击这里升级VIP

回复

使用道具 举报

级别:专业龙套 Lv.4

注册时间
2018-5-20
最后登录
2019-3-21
听众
3
收听
0
主题
0
蓝光币
99 枚
贡献
0 点
发表于 2018-12-11 10:11:39 | 显示全部楼层
太好了  感谢分享
回复

使用道具 举报

级别:群众演员 Lv.3

注册时间
2018-2-11
最后登录
2019-1-18
听众
2
收听
0
主题
0
蓝光币
35 枚
贡献
0 点
QQ
发表于 2018-12-13 08:55:54 | 显示全部楼层
我是会员啊。怎么加大吃一惊。
回复

使用道具 举报

级别:普通观众 Lv.2

注册时间
2018-12-2
最后登录
2019-3-19
听众
1
收听
0
主题
0
蓝光币
84 枚
贡献
0 点
QQ
发表于 2018-12-20 06:30:30 | 显示全部楼层
太好了  感谢分享
回复

使用道具 举报

级别:群众演员 Lv.3

注册时间
2018-2-11
最后登录
2019-1-18
听众
2
收听
0
主题
0
蓝光币
35 枚
贡献
0 点
QQ
发表于 2018-12-22 01:21:57 | 显示全部楼层

这东西我收了!谢谢楼主!中国高清电影网真好!
回复

使用道具 举报

 成长值: 415

级别:尊贵的会员

注册时间
2019-2-27
最后登录
2019-3-14
听众
1
收听
0
主题
0
蓝光币
10 枚
贡献
0 点
发表于 2019-3-1 08:43:04 | 显示全部楼层

楼主太厉害了!楼主,电影应该很好看我觉得中国高清电影网真是个好地方!
回复

使用道具 举报

级别:初级观众 Lv.1

注册时间
2019-2-26
最后登录
2019-3-17
听众
1
收听
0
主题
0
蓝光币
11 枚
贡献
0 点
发表于 6 天前 | 显示全部楼层
楼主发贴辛苦了,谢谢楼主分享!我觉得中国高清电影网是注册对了!
回复

使用道具 举报

懒得打字嘛,点击右侧快捷回复 【右侧内容,后台自定义】
您需要登录后才可以回帖 登录 | 立即注册

本版积分规则

QQ|Archiver|手机版|小黑屋|中国高清网 |网站地图

GMT+8, 2019-3-22 10:37 , Processed in 0.261670 second(s), 43 queries .

Powered by HDchina X3.4

Copyright 2017-2018©HDchina.All right reserved

返回顶部 联系我们