你所知道的4K资源这里全部都有 4K电影 | 4K视频 | 4K壁纸 | 4K MV 怎么播放4K视频 | 4K电视演示片

教你玩转4K私人与家庭影院存储 NAS组装 | 黑群辉 家庭/影院Nas论坛

4K家庭影院信号源与视频设备知识 4K蓝光高清播放机 - 那个品牌好? 4K投影机论坛 | 4K电视机论坛

手把手教你搭建属于自己的家庭影院 4K家庭影院案例 | 家庭影院音频 4K家庭影院论坛

查看: 87|回复: 1

[喜剧片] 布鲁斯特的百万横财/财神有难 Brewsters.Millions.1985.1080p.BluRay.REMUX.AVC.DTS-HD.MA.2.0-FGT 19.51GB

[复制链接]

 成长值: 710

级别:资源管理组

注册时间
2017-10-20
最后登录
2019-3-22
听众
0
收听
0
主题
76497
蓝光币
134731 枚
贡献
146306 点
发表于 2018-12-9 11:03:24 | 显示全部楼层 |阅读模式

布鲁斯特的百万横财/财神有难 Brewsters.Millions.1985.1080p.BluRay.REMUX.AVC.DTS-HD.MA.2.0-FGT 19.51GB-1.jpg
布鲁斯特的百万横财/财神有难 Brewsters.Millions.1985.1080p.BluRay.REMUX.AVC.DTS-HD.MA.2.0-FGT 19.51GB-2.jpg

◎译  名 布鲁斯特的百万横财 / 财神有难(台) / 酿酒师的百万横财(误译)
◎片  名 Brewster's Millions
◎年  代 1985
◎产  地 美国
◎类  别 笑剧
◎语  言 英语
◎上映日期 1985-05-22(美国)
◎IMDb评分 6.5/10 from 32191 users
◎IMDb链接 http://www.imdb.com/title/tt0088850
◎豆瓣评分 6.5/10 from 651 users
◎豆瓣链接 https://movie.douban.com/subject/1299587/
◎片  长 102分钟
◎导  演 沃尔特·希尔 Walter Hill
◎编  剧 George Barr McCutcheon / 赫舍尔·魏因格罗德 Herschel Weingrod / 蒂莫西·哈里斯 Timothy Harris
◎主  演 理查德·普赖尔 Richard Pryor
      约翰·坎迪 John Candy
      Lonette McKee
      史蒂芬·柯林斯 Stephen Collins
      杰里·奥尔巴赫 Jerry Orbach
      帕特·亨格尔 Pat Hingle
      托芙·菲尔德舒 Tovah Feldshuh
      休姆·克罗宁 Hume Cronyn
      乔·格里法西 Joe Grifasi
      皮特·杰森 Peter Jason
      David White
      Jerome Dempsey
      David Wohl
      吉-杜·根伯卡 Ji-Tu Cumbuka
      米尔特·科根 Milt Kogan
      Carmine Caridi
      Yakov Smirnoff
      里克·莫拉尼斯 Rick Moranis
      Grand L. Bush
      Conrad Janis
      Rosetta LeNoire
      约瑟夫·利昂 Joseph Leon
      罗伯特·艾伦斯坦 Robert Ellenstein
      雷尼·桑托尼 Reni Santoni
      Alan Autry
      马拉奇·麦考特 Malachy McCourt
      Roger Til
      艾伦·米勒 Allan Miller
      迈克·哈格蒂 Mike Hagerty
      阿兰·格拉夫 Allan Graf
      Jeffrey Mylett
      林·沙烨 Lin Shaye
      Matt Landers
      Margot Rose
      Bennie E. Dobbins
      Hank Robinson
      Marina Anderson
      Ronald E. Giles


◎标  签 酿酒师的百万横财 | 笑剧 | 美国电影 | 黑色诙谐 | 美国 | 电影 | 典范 | 1985

◎简  介  

  导演沃尔特.希尔以《四十八小时》等警匪行动片著名影坛,本片是他别的气概的尝试,在美国上映相当卖座。男配角理查德.普赖尔,十年前以《银星号大血案》成名,至今还是美国数一数二的黑人谐星。此片中他饰演一个二流棒球运带动蒙弟,当他最贫困失意时,舅父的三亿美圆遗产突如其来,只要他在一个月内先将三万万美圆花掉便可继续,因而各种五花八门的花钱方式连续袍笏退场。本片的故事如同一个现代童话,对现代人的金钱看法停止了嘲讽,其中最成心机的一段,是蒙弟挥金如土加入纽约州长竟选,但竟选口号却是“谁也不要选",对金钱行贿选举的丑陋现象嘲讽鞭挞得淋漓尽致。


  1. Video
  2. ID                                       : 1
  3. Format                                   : AVC
  4. Format/Info                              : Advanced Video Codec
  5. Format profile                           : [url=/cdn-cgi/l/email-protection][email protected][/url]
  6. Format settings                          : CABAC / 4 Ref Frames
  7. Format settings, CABAC                   : Yes
  8. Format settings, ReFrames                : 4 frames
  9. Codec ID                                 : V_MPEG4/ISO/AVC
  10. Duration                                 : 1 h 41 min
  11. Bit rate mode                            : Variable
  12. Bit rate                                 : 26.0 Mb/s
  13. Maximum bit rate                         : 35.0 Mb/s
  14. Width                                    : 1 920 pixels
  15. Height                                   : 1 080 pixels
  16. Display aspect ratio                     : 16:9
  17. Frame rate mode                          : Constant
  18. Frame rate                               : 23.976 (24000/1001) FPS
  19. Standard                                 : NTSC
  20. Color space                              : YUV
  21. Chroma subsampling                       : 4:2:0
  22. Bit depth                                : 8 bits
  23. Scan type                                : Progressive
  24. Bits/(Pixel*Frame)                       : 0.524
  25. Stream size                              : 18.4 GiB (94%)
  26. Title                                    : Brewsters.Millions.1985.1080p.BluRay.REMUX.AVC.DTS-HD.MA.2.0-FGT
  27. Language                                 : English
  28. Default                                  : No
  29. Forced                                   : No
  30. Color range                              : Limited
  31. Color primaries                          : BT.709
  32. Transfer characteristics                 : BT.709
  33. Matrix coefficients                      : BT.709

  34. Audio #1
  35. ID                                       : 2
  36. Format                                   : DTS XLL
  37. Format/Info                              : Digital Theater Systems
  38. Commercial name                          : DTS-HD Master Audio
  39. Codec ID                                 : A_DTS
  40. Duration                                 : 1 h 41 min
  41. Bit rate mode                            : Variable
  42. Bit rate                                 : 789 kb/s
  43. Channel(s)                               : 2 channels
  44. Channel layout                           : L R
  45. Sampling rate                            : 48.0 kHz
  46. Frame rate                               : 93.750 FPS (512 SPF)
  47. Bit depth                                : 16 bits
  48. Compression mode                         : Lossless
  49. Stream size                              : 571 MiB (3%)
  50. Title                                    : Brewsters.Millions.1985.1080p.BluRay.REMUX.AVC.DTS-HD.MA.2.0-FGT
  51. Language                                 : English
  52. Default                                  : Yes
  53. Forced                                   : No

  54. Audio #2
  55. ID                                       : 3
  56. Format                                   : DTS
  57. Format/Info                              : Digital Theater Systems
  58. Codec ID                                 : A_DTS
  59. Duration                                 : 1 h 41 min
  60. Bit rate mode                            : Constant
  61. Bit rate                                 : 447 kb/s
  62. Channel(s)                               : 2 channels
  63. Channel layout                           : L R
  64. Sampling rate                            : 48.0 kHz
  65. Frame rate                               : 93.750 FPS (512 SPF)
  66. Bit depth                                : 16 bits
  67. Compression mode                         : Lossy
  68. Stream size                              : 323 MiB (2%)
  69. Title                                    : Brewsters.Millions.1985.1080p.BluRay.REMUX.AVC.DTS-HD.MA.2.0-FGT
  70. Language                                 : English
  71. Default                                  : No
  72. Forced                                   : No

  73. Audio #3
  74. ID                                       : 4
  75. Format                                   : DTS
  76. Format/Info                              : Digital Theater Systems
  77. Codec ID                                 : A_DTS
  78. Duration                                 : 1 h 41 min
  79. Bit rate mode                            : Constant
  80. Bit rate                                 : 318 kb/s
  81. Channel(s)                               : 2 channels
  82. Channel layout                           : L R
  83. Sampling rate                            : 48.0 kHz
  84. Frame rate                               : 93.750 FPS (512 SPF)
  85. Bit depth                                : 16 bits
  86. Compression mode                         : Lossy
  87. Stream size                              : 230 MiB (1%)
  88. Title                                    : Brewsters.Millions.1985.1080p.BluRay.REMUX.AVC.DTS-HD.MA.2.0-FGT
  89. Language                                 : English
  90. Default                                  : No
  91. Forced                                   : No

  92. Text
  93. ID                                       : 5
  94. Format                                   : PGS
  95. Muxing mode                              : zlib
  96. Codec ID                                 : S_HDMV/PGS
  97. Codec ID/Info                            : Picture based subtitle format used on BDs/HD-DVDs
  98. Duration                                 : 1 h 41 min
  99. Bit rate                                 : 33.5 kb/s
  100. Count of elements                        : 3459
  101. Stream size                              : 24.2 MiB (0%)
  102. Title                                    : English-PGS
  103. Language                                 : English
  104. Default                                  : Yes
  105. Forced                                   : No

  106. Menu
  107. 00:00:00.000                             : en:Chapter 01
  108. 00:12:34.670                             : en:Chapter 02
  109. 00:21:20.821                             : en:Chapter 03
  110. 00:31:16.416                             : en:Chapter 04
  111. 00:40:02.233                             : en:Chapter 05
  112. 00:48:05.966                             : en:Chapter 06
  113. 00:57:42.000                             : en:Chapter 07
  114. 01:05:50.905                             : en:Chapter 08
  115. 01:13:37.871                             : en:Chapter 09
  116. 01:28:33.766                             : en:Chapter 10
复制代码

复制代码

布鲁斯特的百万横财/财神有难 Brewsters.Millions.1985.1080p.BluRay.REMUX.AVC.DTS-HD.MA.2.0-FGT 19.51GB-3.png 布鲁斯特的百万横财/财神有难 Brewsters.Millions.1985.1080p.BluRay.REMUX.AVC.DTS-HD.MA.2.0-FGT 19.51GB-4.png 布鲁斯特的百万横财/财神有难 Brewsters.Millions.1985.1080p.BluRay.REMUX.AVC.DTS-HD.MA.2.0-FGT 19.51GB-5.png





回复

使用道具 举报

级别:荣升主角 Lv.5

注册时间
2018-5-27
最后登录
2019-3-21
听众
4
收听
0
主题
0
蓝光币
17 枚
贡献
0 点
发表于 2019-1-11 20:16:28 | 显示全部楼层
感谢分享!
回复

使用道具 举报

懒得打字嘛,点击右侧快捷回复 【右侧内容,后台自定义】
您需要登录后才可以回帖 登录 | 立即注册

本版积分规则

QQ|Archiver|手机版|小黑屋|中国高清网 |网站地图

GMT+8, 2019-3-22 09:55 , Processed in 0.171775 second(s), 42 queries .

Powered by HDchina X3.4

Copyright 2017-2018©HDchina.All right reserved

返回顶部 联系我们