你所知道的4K资源这里全部都有 4K电影 | 4K视频 | 4K壁纸 | 4K MV 怎么播放4K视频 | 4K电视演示片

教你玩转4K私人与家庭影院存储 NAS组装 | 黑群辉 家庭/影院Nas论坛

4K家庭影院信号源与视频设备知识 4K蓝光高清播放机 - 那个品牌好? 4K投影机论坛 | 4K电视机论坛

手把手教你搭建属于自己的家庭影院 4K家庭影院案例 | 家庭影院音频 4K家庭影院论坛

查看: 142|回复: 1

[喜剧片] 子弹横飞百老汇/子弹穿过百老汇 Bullets.over.Broadway.1994.1080p.BluRay.REMUX.AVC.DTS-HD.MA.2.0-FGT 18.37GB

[复制链接]

 成长值: 1670

级别:资源管理组

注册时间
2017-10-20
最后登录
2019-6-25
听众
0
收听
0
主题
78745
蓝光币
28952 枚
贡献
3070 点
发表于 2018-12-8 10:49:13 | 显示全部楼层 |阅读模式

子弹横飞百老汇/子弹穿过百老汇 Bullets.over.Broadway.1994.1080p.BluRay.REMUX.AVC.DTS-HD.MA.2.0-FGT 18.37GB-1.jpg
子弹横飞百老汇/子弹穿过百老汇 Bullets.over.Broadway.1994.1080p.BluRay.REMUX.AVC.DTS-HD.MA.2.0-FGT 18.37GB-2.jpg

◎译  名 子弹横飞百老汇 / 子弹穿过百老汇 / 百老汇上空的子弹
◎片  名 Bullets Over Broadway
◎年  代 1994
◎产  地 美国
◎类  别 笑剧 / 犯罪
◎语  言 英语
◎上映日期 1994-09-06(威尼斯电影节) / 1995-02-24(美国)
◎IMDb评分 7.5/10 from 32638 users
◎IMDb链接 http://www.imdb.com/title/tt0109348
◎豆瓣评分 8.3/10 from 9361 users
◎豆瓣链接 https://movie.douban.com/subject/1295452/
◎片  长 98 分钟
◎导  演 伍迪·艾伦 Woody Allen
◎编  剧 Douglas McGrath / 伍迪·艾伦 Woody Allen
◎主  演 约翰·库萨克 John Cusack
      黛安·韦斯特 Dianne Wiest
      珍妮佛·提莉 Jennifer Tilly
      查兹·帕尔明特瑞 Chazz Palminteri
      玛丽·露易斯·帕克 Mary-Louise Parker


◎标  签 伍迪·艾伦 | 美国 | WoodyAllen | 黑色诙谐 | 笑剧 | 1994 | 美国电影 | 伍迪艾伦

◎简  介  

  久长以来,剧作家大卫(约翰·库萨克 John Cusack 饰)都过着郁郁不得志的生活,艺术家独有的清高让他对现在败北紊乱的话剧界布满了失望之情。为了奉迎情妇奥利芙(詹妮弗·提莉 Jennifer Tilly 饰),黑帮大佬看中了名不见经传的大卫的剧本想要投资,作为条件条件 ,大卫必须让奥利芙饰演配角。虽然奥利芙絮聒的本性和糟糕的演技让大卫深感抓狂,但在好处眼前,他疾苦的屈就了。就这样,一个希奇的剧组诞生了。
剧本的缝隙,女演员们之间的冲突,男主演日益瘦削的身段都让大卫感应失望,但令他惊奇的是,一向监视着奥利芙的保镳契奇(查兹·帕尔明特瑞 Chazz Palminteri 饰)在无意中展现了过人的编剧才能。在契奇的帮助下,被改写的剧本居然获得了盛大的成功,与此同时,契奇对由自己操刀的剧本展现出的病态固执和剧组里紊乱的男女关系让大卫堕入了另一个窘境……

◎获奖情况  

  第67届奥斯卡金像奖(1995)
  最好导演(提名) 伍迪·艾伦
  最好男配角(提名) 查兹·帕尔明特瑞
  最好女配角 黛安·韦斯特
  最好女配角(提名) 詹妮弗·提莉
  最好原创剧本(提名) 伍迪·艾伦 / 道格拉斯·麦克格兰斯
  最好艺术指导(提名) Susan Bode / 桑托·洛奎斯多
  最好打扮设想(提名) 杰弗里·库兰

  第49届英国电影学院奖(1996)
  电影奖 最好原创剧本(提名) 道格拉斯·麦克格兰斯 / 伍迪·艾伦




  1. Video
  2. ID                                       : 1
  3. Format                                   : AVC
  4. Format/Info                              : Advanced Video Codec
  5. Format profile                           : [url=/cdn-cgi/l/email-protection][email protected][/url]
  6. Format settings                          : CABAC / 3 Ref Frames
  7. Format settings, CABAC                   : Yes
  8. Format settings, ReFrames                : 3 frames
  9. Codec ID                                 : V_MPEG4/ISO/AVC
  10. Duration                                 : 1 h 38 min
  11. Bit rate mode                            : Variable
  12. Bit rate                                 : 24.0 Mb/s
  13. Maximum bit rate                         : 36.0 Mb/s
  14. Width                                    : 1 920 pixels
  15. Height                                   : 1 080 pixels
  16. Display aspect ratio                     : 16:9
  17. Frame rate mode                          : Constant
  18. Frame rate                               : 23.976 (24000/1001) FPS
  19. Color space                              : YUV
  20. Chroma subsampling                       : 4:2:0
  21. Bit depth                                : 8 bits
  22. Scan type                                : Progressive
  23. Bits/(Pixel*Frame)                       : 0.483
  24. Stream size                              : 16.2 GiB (88%)
  25. Title                                    : Bullets.over.Broadway.1994.1080p.BluRay.REMUX.AVC.DTS-HD.MA.2.0-FGT
  26. Writing library                          : x264 core 148 r2643 5c65704
  27. Encoding settings                        : cabac=1 / ref=1 / deblock=1:-1:-1 / analyse=0x1:0 / me=dia / subme=2 / psy=1 / psy_rd=1.00:0.15 / mixed_ref=0 / me_range=16 / chroma_me=1 / trellis=0 / 8x8dct=0 / cqm=0 / deadzone=21,11 / fast_pskip=1 / chroma_qp_offset=0 / threads=16 / lookahead_threads=8 / sliced_threads=0 / slices=4 / nr=0 / decimate=1 / interlaced=0 / bluray_compat=1 / constrained_intra=0 / bframes=3 / b_pyramid=1 / b_adapt=2 / b_bias=0 / direct=3 / weightb=1 / open_gop=0 / weightp=1 / keyint=24 / keyint_min=1 / scenecut=40 / intra_refresh=0 / rc_lookahead=24 / rc=abr / mbtree=1 / bitrate=24000 / ratetol=1.0 / qcomp=0.60 / qpmin=0 / qpmax=69 / qpstep=4 / vbv_maxrate=36000 / vbv_bufsize=30000 / nal_hrd=vbr / filler=0 / ip_ratio=1.40 / aq=1:1.00
  28. Language                                 : English
  29. Default                                  : No
  30. Forced                                   : No
  31. Color range                              : Limited
  32. Color primaries                          : BT.709
  33. Transfer characteristics                 : BT.709
  34. Matrix coefficients                      : BT.709

  35. Audio #1
  36. ID                                       : 2
  37. Format                                   : DTS XLL
  38. Format/Info                              : Digital Theater Systems
  39. Commercial name                          : DTS-HD Master Audio
  40. Codec ID                                 : A_DTS
  41. Duration                                 : 1 h 38 min
  42. Bit rate mode                            : Variable
  43. Bit rate                                 : 1 558 kb/s
  44. Channel(s)                               : 2 channels
  45. Channel layout                           : L R
  46. Sampling rate                            : 48.0 kHz
  47. Frame rate                               : 93.750 FPS (512 SPF)
  48. Bit depth                                : 16 bits
  49. Compression mode                         : Lossless
  50. Stream size                              : 1.07 GiB (6%)
  51. Title                                    : Bullets.over.Broadway.1994.1080p.BluRay.REMUX.AVC.DTS-HD.MA.2.0-FGT
  52. Language                                 : English
  53. Default                                  : Yes
  54. Forced                                   : No

  55. Audio #2
  56. ID                                       : 3
  57. Format                                   : DTS
  58. Format/Info                              : Digital Theater Systems
  59. Codec ID                                 : A_DTS
  60. Duration                                 : 1 h 38 min
  61. Bit rate mode                            : Constant
  62. Bit rate                                 : 1 509 kb/s
  63. Channel(s)                               : 2 channels
  64. Channel layout                           : L R
  65. Sampling rate                            : 48.0 kHz
  66. Frame rate                               : 93.750 FPS (512 SPF)
  67. Bit depth                                : 16 bits
  68. Compression mode                         : Lossy
  69. Stream size                              : 1.04 GiB (6%)
  70. Title                                    : Bullets.over.Broadway.1994.1080p.BluRay.REMUX.AVC.DTS-HD.MA.2.0-FGT
  71. Language                                 : English
  72. Default                                  : No
  73. Forced                                   : No

  74. Menu
  75. 00:00:00.000                             : en:Chapter 01
  76. 00:08:20.625                             : en:Chapter 02
  77. 00:18:26.563                             : en:Chapter 03
  78. 00:25:22.562                             : en:Chapter 04
  79. 00:33:33.928                             : en:Chapter 05
  80. 00:42:28.087                             : en:Chapter 06
  81. 00:49:13.617                             : en:Chapter 07
  82. 00:57:20.979                             : en:Chapter 08
  83. 01:05:25.588                             : en:Chapter 09
  84. 01:13:23.107                             : en:Chapter 10
  85. 01:23:10.068                             : en:Chapter 11
  86. 01:30:02.980                             : en:Chapter 12
复制代码

复制代码

子弹横飞百老汇/子弹穿过百老汇 Bullets.over.Broadway.1994.1080p.BluRay.REMUX.AVC.DTS-HD.MA.2.0-FGT 18.37GB-3.png 子弹横飞百老汇/子弹穿过百老汇 Bullets.over.Broadway.1994.1080p.BluRay.REMUX.AVC.DTS-HD.MA.2.0-FGT 18.37GB-4.png 子弹横飞百老汇/子弹穿过百老汇 Bullets.over.Broadway.1994.1080p.BluRay.REMUX.AVC.DTS-HD.MA.2.0-FGT 18.37GB-5.png





回复

使用道具 举报

级别:荣升主角 Lv.5

注册时间
2018-5-27
最后登录
2019-6-24
听众
10
收听
0
主题
0
蓝光币
135 枚
贡献
0 点
发表于 2019-1-11 20:12:54 | 显示全部楼层
感谢分享!
回复

使用道具 举报

*滑动验证:
懒得打字嘛,点击右侧快捷回复 【右侧内容,后台自定义】
您需要登录后才可以回帖 登录 | 立即注册

本版积分规则

QQ|Archiver|手机版|小黑屋| 中国高清网 |网站地图

GMT+8, 2019-6-25 02:30 , Processed in 0.167083 second(s), 46 queries .

Powered by HDchina X3.4

Copyright 2017-2019©HDchina.All right reserved

返回顶部 联系我们