你所知道的4K资源这里全部都有 4K电影 | 4K视频 | 4K壁纸 | 4K MV 怎么播放4K视频 | 4K电视演示片

教你玩转4K私人与家庭影院存储 NAS组装 | 黑群辉 家庭/影院Nas论坛

4K家庭影院信号源与视频设备知识 4K蓝光高清播放机 - 那个品牌好? 4K投影机论坛 | 4K电视机论坛

手把手教你搭建属于自己的家庭影院 4K家庭影院案例 | 家庭影院音频 4K家庭影院论坛

查看: 25|回复: 1

[喜剧片] 一路闯关过圣诞 Ill.Be.Home.For.Christmas.1998.1080p.BluRay.REMUX.AVC.DTS-HD.MA.5.1-FGT 18.11GB

[复制链接]

级别:资源管理组

UID
1
注册时间
2017-10-20
最后登录
2018-12-14
听众
0
收听
0
主题
73005
蓝光币
104512 枚
贡献
142813 点
发表于 2018-12-6 21:38:28 | 显示全部楼层 |阅读模式

一路闯关过圣诞 Ill.Be.Home.For.Christmas.1998.1080p.BluRay.REMUX.AVC.DTS-HD.MA.5.1-FGT 18.11GB-1.jpg
一路闯关过圣诞 Ill.Be.Home.For.Christmas.1998.1080p.BluRay.REMUX.AVC.DTS-HD.MA.5.1-FGT 18.11GB-2.jpg

◎译  名 一路闯关过圣诞
◎片  名 I'll Be Home for Christmas
◎年  代 1998
◎产  地 美国
◎类  别 笑剧 / 家庭
◎语  言 英语
◎上映日期 1998-11-13
◎IMDb评分 5.4/10 from 7892 users
◎IMDb链接 http://www.imdb.com/title/tt0155753
◎豆瓣评分 7.6/10 from 189 users
◎豆瓣链接 https://movie.douban.com/subject/1297123/
◎片  长 86 分钟
◎导  演 Arlene Sanford
◎编  剧 Harris Goldberg / Tom Nursall
◎主  演 Jonathan Taylor Thomas
      Jessica Biel
      Gary Cole


◎标  签 笑剧 | 圣诞 | 美国 | 家庭 | 童年回忆 | 美国电影 | 一路闯关过圣诞 | 生活

◎简  介  

  在加州就学的杰科从未想要回纽约与家人共渡圣诞,但是在父亲以保时捷车迷惑下,他撤销出国渡假的计划,预备偕同女友赶在圣诞夜回家,但由于一场恶作剧杰科被同学穿上附有超强黏胶的圣诞老人打扮,丢在不见人烟的荒郊外外,身无分文的杰科眼看与父亲约定的时候所剩无几,若没法实时回家保时捷跑车就将泡汤,情急之下,各类能让自己早日回家的方式纷纷出笼,表演一场跋涉三千英哩的冒险情节,在这段回家路上,杰科所面临的应战远远超越他的想像,包括搭便车碰到的疯狂司机,罗嗦的老太太……


  1. Video
  2. ID                                       : 1
  3. Format                                   : AVC
  4. Format/Info                              : Advanced Video Codec
  5. Format profile                           : [url=/cdn-cgi/l/email-protection][email protected][/url]
  6. Format settings                          : CABAC / 4 Ref Frames
  7. Format settings, CABAC                   : Yes
  8. Format settings, ReFrames                : 4 frames
  9. Codec ID                                 : V_MPEG4/ISO/AVC
  10. Duration                                 : 1 h 26 min
  11. Bit rate mode                            : Variable
  12. Bit rate                                 : 24.7 Mb/s
  13. Maximum bit rate                         : 32.0 Mb/s
  14. Width                                    : 1 920 pixels
  15. Height                                   : 1 080 pixels
  16. Display aspect ratio                     : 16:9
  17. Frame rate mode                          : Constant
  18. Frame rate                               : 23.976 (24000/1001) FPS
  19. Color space                              : YUV
  20. Chroma subsampling                       : 4:2:0
  21. Bit depth                                : 8 bits
  22. Scan type                                : Progressive
  23. Bits/(Pixel*Frame)                       : 0.498
  24. Stream size                              : 14.9 GiB (82%)
  25. Title                                    : Ill.Be.Home.For.Christmas.1998.1080p.BluRay.REMUX.AVC.DTS-HD.MA.5.1-FGT
  26. Language                                 : English
  27. Default                                  : No
  28. Forced                                   : No

  29. Audio #1
  30. ID                                       : 2
  31. Format                                   : DTS XLL
  32. Format/Info                              : Digital Theater Systems
  33. Commercial name                          : DTS-HD Master Audio
  34. Codec ID                                 : A_DTS
  35. Duration                                 : 1 h 26 min
  36. Bit rate mode                            : Variable
  37. Bit rate                                 : 3 800 kb/s
  38. Channel(s)                               : 6 channels
  39. Channel layout                           : C L R Ls Rs LFE
  40. Sampling rate                            : 48.0 kHz
  41. Frame rate                               : 93.750 FPS (512 SPF)
  42. Bit depth                                : 24 bits
  43. Compression mode                         : Lossless
  44. Stream size                              : 2.29 GiB (13%)
  45. Title                                    : Ill.Be.Home.For.Christmas.1998.1080p.BluRay.REMUX.AVC.DTS-HD.MA.5.1-FGT
  46. Language                                 : English
  47. Default                                  : Yes
  48. Forced                                   : No

  49. Audio #2
  50. ID                                       : 3
  51. Format                                   : DTS
  52. Format/Info                              : Digital Theater Systems
  53. Codec ID                                 : A_DTS
  54. Duration                                 : 1 h 26 min
  55. Bit rate mode                            : Constant
  56. Bit rate                                 : 1 509 kb/s
  57. Channel(s)                               : 6 channels
  58. Channel layout                           : C L R Ls Rs LFE
  59. Sampling rate                            : 48.0 kHz
  60. Frame rate                               : 93.750 FPS (512 SPF)
  61. Bit depth                                : 24 bits
  62. Compression mode                         : Lossy
  63. Stream size                              : 931 MiB (5%)
  64. Title                                    : Ill.Be.Home.For.Christmas.1998.1080p.BluRay.REMUX.AVC.DTS-HD.MA.5.1-FGT
  65. Language                                 : English
  66. Default                                  : No
  67. Forced                                   : No

  68. Text
  69. ID                                       : 4
  70. Format                                   : PGS
  71. Muxing mode                              : zlib
  72. Codec ID                                 : S_HDMV/PGS
  73. Codec ID/Info                            : Picture based subtitle format used on BDs/HD-DVDs
  74. Duration                                 : 1 h 25 min
  75. Bit rate                                 : 90.6 kb/s
  76. Count of elements                        : 2858
  77. Stream size                              : 55.7 MiB (0%)
  78. Title                                    : English-PGS
  79. Language                                 : English
  80. Default                                  : Yes
  81. Forced                                   : No

  82. Menu
  83. 00:00:00.000                             : en:Chapter 01
  84. 00:04:32.647                             : en:Chapter 02
  85. 00:08:46.651                             : en:Chapter 03
  86. 00:13:49.703                             : en:Chapter 04
  87. 00:18:26.105                             : en:Chapter 05
  88. 00:24:51.740                             : en:Chapter 06
  89. 00:32:05.715                             : en:Chapter 07
  90. 00:38:53.247                             : en:Chapter 08
  91. 00:48:27.696                             : en:Chapter 09
  92. 00:52:02.410                             : en:Chapter 10
  93. 01:01:02.867                             : en:Chapter 11
  94. 01:08:40.616                             : en:Chapter 12
  95. 01:10:38.776                             : en:Chapter 13
  96. 01:12:13.912                             : en:Chapter 14
  97. 01:15:09.421                             : en:Chapter 15
  98. 01:20:20.816                             : en:Chapter 16
  99. 01:21:43.690                             : en:Chapter 17
复制代码

复制代码

一路闯关过圣诞 Ill.Be.Home.For.Christmas.1998.1080p.BluRay.REMUX.AVC.DTS-HD.MA.5.1-FGT 18.11GB-3.png 一路闯关过圣诞 Ill.Be.Home.For.Christmas.1998.1080p.BluRay.REMUX.AVC.DTS-HD.MA.5.1-FGT 18.11GB-4.png 一路闯关过圣诞 Ill.Be.Home.For.Christmas.1998.1080p.BluRay.REMUX.AVC.DTS-HD.MA.5.1-FGT 18.11GB-5.png





回复

使用道具 举报

级别:专业龙套 Lv.4

UID
4064
注册时间
2018-5-27
最后登录
2018-12-8
听众
3
收听
0
主题
0
蓝光币
0 枚
贡献
0 点
发表于 6 天前 | 显示全部楼层
感谢分享!
回复

使用道具 举报

懒得打字嘛,点击右侧快捷回复 【右侧内容,后台自定义】
您需要登录后才可以回帖 登录 | 立即注册

本版积分规则

QQ|Archiver|手机版|小黑屋|中国高清网 |网站地图

GMT+8, 2018-12-14 15:49 , Processed in 0.129905 second(s), 41 queries .

Powered by HDchina X3.4

Copyright 2017-2018©HDchina.All right reserved

返回顶部 联系我们