你所知道的4K资源这里全部都有 4K电影 | 4K视频 | 4K壁纸 | 4K MV 怎么播放4K视频 | 4K电视演示片

教你玩转4K私人与家庭影院存储 NAS组装 | 黑群辉 家庭/影院Nas论坛

4K家庭影院信号源与视频设备知识 4K蓝光高清播放机 - 那个品牌好? 4K投影机论坛 | 4K电视机论坛

手把手教你搭建属于自己的家庭影院 4K家庭影院案例 | 家庭影院音频 4K家庭影院论坛

查看: 35|回复: 1

[喜剧片] 支持女孩们/支援女孩 Support.the.Girls.2018.1080p.BluRay.REMUX.AVC.DTS-HD.MA5.1-FGT 18.74GB

[复制链接]

级别:资源管理组

UID
1
注册时间
2017-10-20
最后登录
2018-12-14
听众
0
收听
0
主题
73005
蓝光币
104512 枚
贡献
142813 点
发表于 2018-12-6 21:38:09 | 显示全部楼层 |阅读模式

支持女孩们/支援女孩 Support.the.Girls.2018.1080p.BluRay.REMUX.AVC.DTS-HD.MA5.1-FGT 18.74GB-1.jpg
支持女孩们/支援女孩 Support.the.Girls.2018.1080p.BluRay.REMUX.AVC.DTS-HD.MA5.1-FGT 18.74GB-2.jpg

◎译  名 支持女孩们 / 支援女孩
◎片  名 Support the Girls
◎年  代 2018
◎产  地 美国
◎类  别 笑剧
◎语  言 英语
◎上映日期 2018-07(卡罗维发利电影节) / 2018-08-28(美国)
◎IMDb评分 6.2/10 from 1653 users
◎IMDb链接 http://www.imdb.com/title/tt6859352
◎豆瓣评分 0/10 from 0 users
◎豆瓣链接 https://movie.douban.com/subject/27057943/
◎片  长 94分钟
◎导  演 安德鲁·布加尔斯基 Andrew Bujalski
◎编  剧 安德鲁·布加尔斯基 Andrew Bujalski
◎主  演 雷吉娜·赫尔 Regina Hall
      海莉·露·理查森 Haley Lu Richardson
      迪兰·格鲁拉 Dylan Gelula
      阿曼达·米夏卡 AJ Michalka
      Shayna McHayle
      丽亚·德拉利亚 Lea DeLaria
      詹姆斯·勒格罗 James LeGros
      珍娜·克拉默 Jana Kramer
      布鲁克琳·黛克 Brooklyn Decker
      Lawrence Varnado
      Brian Bogart
      Sean H.A. Gallagher
      佐伊·格瑞艾姆 Zoe Graham
      克雷·里福特 Clay Liford
      乔尼·马尔斯 Jonny Mars
      比尔·怀斯 Bill Wise


◎标  签 2018 | 美国 | 笑剧 | 女性 | ReginaHall | HaleyLuRichardson | 美国电影 | 安德鲁·布加尔斯基

◎简  介  

  The general manager at a highway-side ''sports bar with curves" has her incurable optimism and faith, in her girls, her customers, and herself, tested over the course of a long, strange day.

◎获奖情况  

  第84届纽约影评人协会奖(2018)
  最好女配角 雷吉娜·赫尔

  第34届美国自力精神奖(2019)
  最好女配角(提名) 雷吉娜·赫尔

  第28届哥谭自力电影奖(2018)
  最好女演员(提名) 雷吉娜·赫尔
  最好剧本(提名)




  1. Video
  2. ID                                       : 1
  3. Format                                   : AVC
  4. Format/Info                              : Advanced Video Codec
  5. Format profile                           : [url=/cdn-cgi/l/email-protection][email protected][/url]
  6. Format settings                          : CABAC / 4 Ref Frames
  7. Format settings, CABAC                   : Yes
  8. Format settings, ReFrames                : 4 frames
  9. Format settings, GOP                     : M=1, N=12
  10. Codec ID                                 : V_MPEG4/ISO/AVC
  11. Duration                                 : 1 h 30 min
  12. Bit rate mode                            : Variable
  13. Bit rate                                 : 24.9 Mb/s
  14. Maximum bit rate                         : 35.0 Mb/s
  15. Width                                    : 1 920 pixels
  16. Height                                   : 1 080 pixels
  17. Display aspect ratio                     : 16:9
  18. Frame rate mode                          : Constant
  19. Frame rate                               : 23.976 (24000/1001) FPS
  20. Color space                              : YUV
  21. Chroma subsampling                       : 4:2:0
  22. Bit depth                                : 8 bits
  23. Scan type                                : Progressive
  24. Bits/(Pixel*Frame)                       : 0.500
  25. Stream size                              : 15.7 GiB (84%)
  26. Title                                    : Support.the.Girls.2018.1080p.BluRay.REMUX.AVC.DTS-HD.MA5.1-FGT
  27. Language                                 : English
  28. Default                                  : No
  29. Forced                                   : No

  30. Audio #1
  31. ID                                       : 2
  32. Format                                   : DTS XLL
  33. Format/Info                              : Digital Theater Systems
  34. Commercial name                          : DTS-HD Master Audio
  35. Codec ID                                 : A_DTS
  36. Duration                                 : 1 h 30 min
  37. Bit rate mode                            : Variable
  38. Bit rate                                 : 3 300 kb/s
  39. Channel(s)                               : 6 channels
  40. Channel layout                           : C L R Ls Rs LFE
  41. Sampling rate                            : 48.0 kHz
  42. Frame rate                               : 93.750 FPS (512 SPF)
  43. Bit depth                                : 24 bits
  44. Compression mode                         : Lossless
  45. Stream size                              : 2.08 GiB (11%)
  46. Title                                    : Support.the.Girls.2018.1080p.BluRay.REMUX.AVC.DTS-HD.MA5.1-FGT
  47. Language                                 : English
  48. Default                                  : Yes
  49. Forced                                   : No

  50. Audio #2
  51. ID                                       : 3
  52. Format                                   : DTS
  53. Format/Info                              : Digital Theater Systems
  54. Codec ID                                 : A_DTS
  55. Duration                                 : 1 h 30 min
  56. Bit rate mode                            : Constant
  57. Bit rate                                 : 1 509 kb/s
  58. Channel(s)                               : 6 channels
  59. Channel layout                           : C L R Ls Rs LFE
  60. Sampling rate                            : 48.0 kHz
  61. Frame rate                               : 93.750 FPS (512 SPF)
  62. Bit depth                                : 24 bits
  63. Compression mode                         : Lossy
  64. Stream size                              : 973 MiB (5%)
  65. Title                                    : Support.the.Girls.2018.1080p.BluRay.REMUX.AVC.DTS-HD.MA5.1-FGT
  66. Language                                 : English
  67. Default                                  : No
  68. Forced                                   : No

  69. Text #1
  70. ID                                       : 4
  71. Format                                   : PGS
  72. Muxing mode                              : zlib
  73. Codec ID                                 : S_HDMV/PGS
  74. Codec ID/Info                            : Picture based subtitle format used on BDs/HD-DVDs
  75. Duration                                 : 1 h 29 min
  76. Bit rate                                 : 101 kb/s
  77. Count of elements                        : 3356
  78. Stream size                              : 64.8 MiB (0%)
  79. Title                                    : English-PGS
  80. Language                                 : English
  81. Default                                  : Yes
  82. Forced                                   : No

  83. Text #2
  84. ID                                       : 5
  85. Format                                   : PGS
  86. Muxing mode                              : zlib
  87. Codec ID                                 : S_HDMV/PGS
  88. Codec ID/Info                            : Picture based subtitle format used on BDs/HD-DVDs
  89. Duration                                 : 1 h 29 min
  90. Bit rate                                 : 77.0 kb/s
  91. Count of elements                        : 2884
  92. Stream size                              : 49.4 MiB (0%)
  93. Title                                    : Spanish-PGS
  94. Language                                 : Spanish
  95. Default                                  : No
  96. Forced                                   : No

  97. Menu
  98. 00:00:00.000                             : en:Chapter 01
  99. 00:08:21.792                             : en:Chapter 02
  100. 00:14:03.801                             : en:Chapter 03
  101. 00:22:42.986                             : en:Chapter 04
  102. 00:30:02.926                             : en:Chapter 05
  103. 00:39:14.769                             : en:Chapter 06
  104. 00:46:20.235                             : en:Chapter 07
  105. 00:52:40.240                             : en:Chapter 08
  106. 01:01:18.800                             : en:Chapter 09
  107. 01:09:00.094                             : en:Chapter 10
  108. 01:15:25.771                             : en:Chapter 11
  109. 01:22:51.466                             : en:Chapter 12
复制代码

复制代码

支持女孩们/支援女孩 Support.the.Girls.2018.1080p.BluRay.REMUX.AVC.DTS-HD.MA5.1-FGT 18.74GB-3.png 支持女孩们/支援女孩 Support.the.Girls.2018.1080p.BluRay.REMUX.AVC.DTS-HD.MA5.1-FGT 18.74GB-4.png 支持女孩们/支援女孩 Support.the.Girls.2018.1080p.BluRay.REMUX.AVC.DTS-HD.MA5.1-FGT 18.74GB-5.png




回复

使用道具 举报

级别:专业龙套 Lv.4

UID
4064
注册时间
2018-5-27
最后登录
2018-12-8
听众
3
收听
0
主题
0
蓝光币
0 枚
贡献
0 点
发表于 7 天前 | 显示全部楼层
感谢分享!
回复

使用道具 举报

懒得打字嘛,点击右侧快捷回复 【右侧内容,后台自定义】
您需要登录后才可以回帖 登录 | 立即注册

本版积分规则

QQ|Archiver|手机版|小黑屋|中国高清网 |网站地图

GMT+8, 2018-12-14 15:13 , Processed in 0.127620 second(s), 41 queries .

Powered by HDchina X3.4

Copyright 2017-2018©HDchina.All right reserved

返回顶部 联系我们