你所知道的4K资源这里全部都有 4K电影 | 4K视频 | 4K壁纸 | 4K MV 怎么播放4K视频 | 4K电视演示片

教你玩转4K私人与家庭影院存储 NAS组装 | 黑群辉 家庭/影院Nas论坛

4K家庭影院信号源与视频设备知识 4K蓝光高清播放机 - 那个品牌好? 4K投影机论坛 | 4K电视机论坛

手把手教你搭建属于自己的家庭影院 4K家庭影院案例 | 家庭影院音频 4K家庭影院论坛

查看: 30|回复: 1

[冒险片] 狼女传奇/娜提寻父记 The.Journey.Of.Natty.Gann.1985.1080p.BluRay.REMUX.AVC.DD2.0-FGT 18.45GB

[复制链接]

级别:资源管理组

UID
1
注册时间
2017-10-20
最后登录
2018-12-14
听众
0
收听
0
主题
73005
蓝光币
104516 枚
贡献
142813 点
发表于 2018-12-6 21:37:24 | 显示全部楼层 |阅读模式

狼女传奇/娜提寻父记 The.Journey.Of.Natty.Gann.1985.1080p.BluRay.REMUX.AVC.DD2.0-FGT 18.45GB-1.jpg
狼女传奇/娜提寻父记 The.Journey.Of.Natty.Gann.1985.1080p.BluRay.REMUX.AVC.DD2.0-FGT 18.45GB-2.jpg

◎译  名 狼女传奇 / 娜提寻父记
◎片  名 The Journey of Natty Gann
◎年  代 1985
◎产  地 美国
◎类  别 家庭 / 冒险
◎语  言 英语
◎上映日期 1985-09-27(美国)
◎IMDb评分 7.1/10 from 4471 users
◎IMDb链接 http://www.imdb.com/title/tt0089385
◎豆瓣评分 7.9/10 from 101 users
◎豆瓣链接 https://movie.douban.com/subject/1294716/
◎片  长 101 分钟
◎导  演 Jeremy Kagan
◎编  剧 Jeanne Rosenberg
◎主  演 梅雷迪斯·萨拉格尔 Meredith Salenger
      约翰·库萨克 John Cusack
      雷·怀斯 Ray Wise
      莱妮·卡赞 Lainie Kazan
      斯加特克罗索斯 Scatman Crothers
      贝瑞·米勒 Barry Miller
      弗娜·布鲁姆 Verna Bloom
      Bruce M. Fischer
      John Finnegan


◎标  签 美国 | JohnCusack | 1985 | 美国电影 | 约翰·库萨克 | 温情 | 狗狗 | 电影

◎简  介  

  Natty Gann (played by Meredith Salenger) is a twelve year old Depression era girl whose single-parent father leaves her behind in Chicago while he goes to Washington State to look for work in the timber industry. Natty runs away from the guardian she was left with to follow Dad. She befriends and is befriended by a wolf that has been abused in dog fights, hops a freight train west, and is presumed dead when her wallet is found after the train crashes. Dad gets bitter and endangers himself in his new job. Meanwhile Natty has a series of adventures and mis- adventures in various farmhouses, police stations, hobo camps, reform schools, and boxcars.

◎获奖情况  

  第58届奥斯卡金像奖(1986)
  最好打扮设想(提名) 艾伯特·沃斯基




  1. Video
  2. ID                                       : 1
  3. Format                                   : AVC
  4. Format/Info                              : Advanced Video Codec
  5. Format profile                           : [url=/cdn-cgi/l/email-protection][email protected][/url]
  6. Format settings                          : CABAC / 4 Ref Frames
  7. Format settings, CABAC                   : Yes
  8. Format settings, ReFrames                : 4 frames
  9. Codec ID                                 : V_MPEG4/ISO/AVC
  10. Duration                                 : 1 h 40 min
  11. Bit rate mode                            : Variable
  12. Bit rate                                 : 25.9 Mb/s
  13. Maximum bit rate                         : 32.0 Mb/s
  14. Width                                    : 1 920 pixels
  15. Height                                   : 1 080 pixels
  16. Display aspect ratio                     : 16:9
  17. Frame rate mode                          : Constant
  18. Frame rate                               : 23.976 (24000/1001) FPS
  19. Color space                              : YUV
  20. Chroma subsampling                       : 4:2:0
  21. Bit depth                                : 8 bits
  22. Scan type                                : Progressive
  23. Bits/(Pixel*Frame)                       : 0.520
  24. Stream size                              : 18.2 GiB (99%)
  25. Title                                    : The.Journey.Of.Natty.Gann.1985.1080p.BluRay.REMUX.AVC.DD2.0-FGT
  26. Language                                 : English
  27. Default                                  : No
  28. Forced                                   : No

  29. Audio
  30. ID                                       : 2
  31. Format                                   : AC-3
  32. Format/Info                              : Audio Coding 3
  33. Commercial name                          : Dolby Digital
  34. Codec ID                                 : A_AC3
  35. Duration                                 : 1 h 41 min
  36. Bit rate mode                            : Constant
  37. Bit rate                                 : 320 kb/s
  38. Channel(s)                               : 2 channels
  39. Channel layout                           : L R
  40. Sampling rate                            : 48.0 kHz
  41. Frame rate                               : 31.250 FPS (1536 SPF)
  42. Bit depth                                : 16 bits
  43. Compression mode                         : Lossy
  44. Stream size                              : 231 MiB (1%)
  45. Title                                    : The.Journey.Of.Natty.Gann.1985.1080p.BluRay.REMUX.AVC.DD2.0-FGT
  46. Language                                 : English
  47. Service kind                             : Complete Main
  48. Default                                  : Yes
  49. Forced                                   : No

  50. Text
  51. ID                                       : 3
  52. Format                                   : PGS
  53. Muxing mode                              : zlib
  54. Codec ID                                 : S_HDMV/PGS
  55. Codec ID/Info                            : Picture based subtitle format used on BDs/HD-DVDs
  56. Duration                                 : 1 h 34 min
  57. Bit rate                                 : 45.6 kb/s
  58. Count of elements                        : 1878
  59. Stream size                              : 31.0 MiB (0%)
  60. Title                                    : English-PGS
  61. Language                                 : English
  62. Default                                  : Yes
  63. Forced                                   : No

  64. Menu
  65. 00:00:00.000                             : en:Chapter 01
  66. 00:06:04.364                             : en:Chapter 02
  67. 00:12:40.801                             : en:Chapter 03
  68. 00:19:41.388                             : en:Chapter 04
  69. 00:25:11.468                             : en:Chapter 05
  70. 00:30:18.399                             : en:Chapter 06
  71. 00:34:29.025                             : en:Chapter 07
  72. 00:45:34.148                             : en:Chapter 08
  73. 00:52:54.838                             : en:Chapter 09
  74. 00:56:23.671                             : en:Chapter 10
  75. 01:07:28.586                             : en:Chapter 11
  76. 01:13:01.085                             : en:Chapter 12
  77. 01:23:23.289                             : en:Chapter 13
  78. 01:27:56.354                             : en:Chapter 14
  79. 01:35:13.916                             : en:Chapter 15
复制代码

复制代码

狼女传奇/娜提寻父记 The.Journey.Of.Natty.Gann.1985.1080p.BluRay.REMUX.AVC.DD2.0-FGT 18.45GB-3.png 狼女传奇/娜提寻父记 The.Journey.Of.Natty.Gann.1985.1080p.BluRay.REMUX.AVC.DD2.0-FGT 18.45GB-4.png 狼女传奇/娜提寻父记 The.Journey.Of.Natty.Gann.1985.1080p.BluRay.REMUX.AVC.DD2.0-FGT 18.45GB-5.png





回复

使用道具 举报

级别:专业龙套 Lv.4

UID
4064
注册时间
2018-5-27
最后登录
2018-12-8
听众
3
收听
0
主题
0
蓝光币
0 枚
贡献
0 点
发表于 7 天前 | 显示全部楼层
感谢分享!
回复

使用道具 举报

懒得打字嘛,点击右侧快捷回复 【右侧内容,后台自定义】
您需要登录后才可以回帖 登录 | 立即注册

本版积分规则

QQ|Archiver|手机版|小黑屋|中国高清网 |网站地图

GMT+8, 2018-12-14 16:15 , Processed in 0.119817 second(s), 41 queries .

Powered by HDchina X3.4

Copyright 2017-2018©HDchina.All right reserved

返回顶部 联系我们