你所知道的4K资源这里全部都有 4K电影 | 4K视频 | 4K壁纸 | 4K MV 怎么播放4K视频 | 4K电视演示片

教你玩转4K私人与家庭影院存储 NAS组装 | 黑群辉 家庭/影院Nas论坛

4K家庭影院信号源与视频设备知识 4K蓝光高清播放机 - 那个品牌好? 4K投影机论坛 | 4K电视机论坛

手把手教你搭建属于自己的家庭影院 4K家庭影院案例 | 家庭影院音频 4K家庭影院论坛

查看: 43|回复: 3

[惊悚片] 一定要抓住 The.Chase.2017.KOREAN.DC.1080p.BluRay.x264.DTS-WiKi 12.82GB

[复制链接]

级别:资源管理组

UID
1
注册时间
2017-10-20
最后登录
2018-12-14
听众
0
收听
0
主题
73005
蓝光币
104512 枚
贡献
142813 点
发表于 2018-12-6 21:36:01 | 显示全部楼层 |阅读模式

一定要捉住 The.Chase.2017.KOREAN.DC.1080p.BluRay.x264.DTS-WiKi 12.82GB-1.jpg
一定要捉住 The.Chase.2017.KOREAN.DC.1080p.BluRay.x264.DTS-WiKi 12.82GB-2.jpg

◎译  名 一定要捉住 / The Chase
◎片  名 ??? ???
◎年  代 2017
◎产  地 韩国
◎类  别 惊悚 / 犯罪
◎语  言 韩语
◎上映日期 2017-11-29(韩国)
◎IMDb评分 6.5/10 from 541 users
◎IMDb链接 http://www.imdb.com/title/tt8088944
◎豆瓣评分 6.6/10 from 2265 users
◎豆瓣链接 https://movie.douban.com/subject/26945132/
◎片  长 110分钟
◎导  演 金泓善 Hong-sun Kim
◎编  剧 李赞荣 Chan-yeong Lee / 柳卡烈 Kab-yeol Yoo
◎主  演 白润植 Yun-shik Baek
      成东日 Dong-il Sung
      千虎珍 Ho-jin Jeon
      裴宗玉 Chong-ok Bae
      赵达焕 Dal-hwan Jo
      朴亨洙 Park Hyoung-soo
      孙钟学 Jong-Hak Son
      李坎熙 Lee Kan-hee
      朴智賢 Park Ji-hyun
      金思英 Kim Si-yeong
      吴熙俊 Hee-joon Oh
      高圭弼 Ko Kyu-pil
      金善荷 Kim Seon-ha
      吴炽垣 Chi-woon Oh
      申文成 Mun-sung Shin
      金民尚 Kim Min-sang
      李民雄 Min-woong Lee
      孙成灿 Son Seong-chan
      刘在明 Jae-myung Yoo
      郑侑敏 Yoo-min Jung


◎标  签 韩国 | 犯罪 | 悬疑 | 惊悚 | 2017 | 剧情 | 罪案 | 老人

◎简  介  

  电影报告了追踪未了案事务凶手的故事。杀人案再次发生,犯罪手法居然与30年前一路未了案事务如出一辙。很是领会小区的老人和很是领会事务的前职刑 警用直觉与感受起头追踪凶手....


  1. Video
  2. ID                                       : 1
  3. Format                                   : AVC
  4. Format/Info                              : Advanced Video Codec
  5. Format profile                           : [url=/cdn-cgi/l/email-protection][email protected][/url]
  6. Format settings                          : CABAC / 5 Ref Frames
  7. Format settings, CABAC                   : Yes
  8. Format settings, ReFrames                : 5 frames
  9. Codec ID                                 : V_MPEG4/ISO/AVC
  10. Duration                                 : 2 h 2 min
  11. Bit rate                                 : 13.5 Mb/s
  12. Width                                    : 1 920 pixels
  13. Height                                   : 804 pixels
  14. Display aspect ratio                     : 2.40:1
  15. Frame rate mode                          : Constant
  16. Frame rate                               : 23.976 (24000/1001) FPS
  17. Color space                              : YUV
  18. Chroma subsampling                       : 4:2:0
  19. Bit depth                                : 8 bits
  20. Scan type                                : Progressive
  21. Bits/(Pixel*Frame)                       : 0.365
  22. Stream size                              : 11.5 GiB (90%)
  23. Writing library                          : x264 core 155 r2867+82 a249126 t_mod_Custom_2 [[url=/cdn-cgi/l/email-protection][email protected][/url] X86_64]
  24. Encoding settings                        : cabac=1 / ref=5 / deblock=1:-3:-3 / analyse=0x3:0x133 / me=umh / subme=10 / psy=1 / fade_compensate=0.00 / psy_rd=1.00:0.00 / mixed_ref=1 / me_range=32 / chroma_me=1 / trellis=2 / 8x8dct=1 / cqm=0 / deadzone=21,11 / fast_pskip=0 / chroma_qp_offset=-2 / threads=12 / lookahead_threads=2 / sliced_threads=0 / nr=0 / decimate=0 / interlaced=0 / bluray_compat=0 / constrained_intra=0 / fgo=0 / bframes=9 / b_pyramid=2 / b_adapt=2 / b_bias=0 / direct=3 / weightb=1 / open_gop=0 / weightp=2 / keyint=250 / keyint_min=23 / scenecut=40 / intra_refresh=0 / rc_lookahead=60 / rc=crf / mbtree=0 / crf=17.1000 / qcomp=0.60 / qpmin=0:0:0 / qpmax=69:69:69 / qpstep=4 / vbv_maxrate=62500 / vbv_bufsize=78125 / crf_max=0.0 / nal_hrd=none / filler=0 / ip_ratio=1.40 / pb_ratio=1.30 / aq=3:0.80 / aq-sensitivity=10.00 / aq-factor=1.00:1.00:1.00 / aq2=0 / aq3=0 / zones=324,848,crf=14.5
  25. Default                                  : Yes
  26. Forced                                   : No

  27. Audio
  28. ID                                       : 2
  29. Format                                   : DTS
  30. Format/Info                              : Digital Theater Systems
  31. Codec ID                                 : A_DTS
  32. Duration                                 : 2 h 2 min
  33. Bit rate mode                            : Constant
  34. Bit rate                                 : 1 509 kb/s
  35. Channel(s)                               : 6 channels
  36. Channel layout                           : C L R Ls Rs LFE
  37. Sampling rate                            : 48.0 kHz
  38. Frame rate                               : 93.750 FPS (512 SPF)
  39. Bit depth                                : 24 bits
  40. Compression mode                         : Lossy
  41. Stream size                              : 1.29 GiB (10%)
  42. Language                                 : Korean
  43. Default                                  : Yes
  44. Forced                                   : No

  45. Text
  46. ID                                       : 3
  47. Format                                   : UTF-8
  48. Codec ID                                 : S_TEXT/UTF8
  49. Codec ID/Info                            : UTF-8 Plain Text
  50. Duration                                 : 1 h 57 min
  51. Bit rate                                 : 35 b/s
  52. Count of elements                        : 1293
  53. Stream size                              : 31.0 KiB (0%)
  54. Language                                 : English
  55. Default                                  : Yes
  56. Forced                                   : Yes

  57. Menu
  58. 00:00:00.000                             : en:00:00:00.000
  59. 00:09:38.828                             : en:00:09:38.828
  60. 00:20:06.789                             : en:00:20:06.789
  61. 00:29:39.736                             : en:00:29:39.736
  62. 00:37:26.661                             : en:00:37:26.661
  63. 00:47:06.198                             : en:00:47:06.198
  64. 00:53:12.898                             : en:00:53:12.898
  65. 01:01:10.292                             : en:01:01:10.292
  66. 01:09:07.643                             : en:01:09:07.643
  67. 01:16:44.642                             : en:01:16:44.642
  68. 01:23:15.908                             : en:01:23:15.908
  69. 01:32:59.282                             : en:01:32:59.282
  70. 01:40:26.187                             : en:01:40:26.187
  71. 01:45:56.809                             : en:01:45:56.809
  72. 01:50:39.424                             : en:01:50:39.424
  73. 01:56:27.189                             : en:01:56:27.189
复制代码

复制代码

一定要捉住 The.Chase.2017.KOREAN.DC.1080p.BluRay.x264.DTS-WiKi 12.82GB-3.png 一定要捉住 The.Chase.2017.KOREAN.DC.1080p.BluRay.x264.DTS-WiKi 12.82GB-4.png 一定要捉住 The.Chase.2017.KOREAN.DC.1080p.BluRay.x264.DTS-WiKi 12.82GB-5.png





回复

使用道具 举报

级别:普通观众 Lv.2

UID
11421
注册时间
2018-12-4
最后登录
2018-12-14
听众
0
收听
0
主题
0
蓝光币
43 枚
贡献
0 点
发表于 7 天前 | 显示全部楼层
感谢楼主分享精彩电影!
回复

使用道具 举报

级别:普通观众 Lv.2

UID
11632
注册时间
2018-12-7
最后登录
2018-12-12
听众
0
收听
0
主题
0
蓝光币
21 枚
贡献
0 点
QQ
发表于 7 天前 | 显示全部楼层

楼主太厉害了!楼主,电影应该很好看我觉得中国高清电影网真是个好地方!
回复

使用道具 举报

级别:荣升主角 Lv.5

UID
5394
注册时间
2018-7-22
最后登录
2018-12-14
听众
3
收听
0
主题
0
蓝光币
940 枚
贡献
0 点
发表于 7 天前 | 显示全部楼层
导演剪辑版挺值得收藏 谢谢
回复

使用道具 举报

懒得打字嘛,点击右侧快捷回复 【右侧内容,后台自定义】
您需要登录后才可以回帖 登录 | 立即注册

本版积分规则

QQ|Archiver|手机版|小黑屋|中国高清网 |网站地图

GMT+8, 2018-12-14 15:22 , Processed in 0.128082 second(s), 42 queries .

Powered by HDchina X3.4

Copyright 2017-2018©HDchina.All right reserved

返回顶部 联系我们