你所知道的4K资源这里全部都有 4K电影 | 4K视频 | 4K壁纸 | 4K MV 怎么播放4K视频 | 4K电视演示片

教你玩转4K私人与家庭影院存储 NAS组装 | 黑群辉 家庭/影院Nas论坛

4K家庭影院信号源与视频设备知识 4K蓝光高清播放机 - 那个品牌好? 4K投影机论坛 | 4K电视机论坛

手把手教你搭建属于自己的家庭影院 4K家庭影院案例 | 家庭影院音频 4K家庭影院论坛

查看: 27|回复: 0

[剧情片] 温柔的钩子 The.Tender.Hook.2008.1080p.BluRay.x264-HD4U 6.56GB

[复制链接]

级别:资源管理组

UID
1
注册时间
2017-10-20
最后登录
2018-12-14
听众
0
收听
0
主题
73005
蓝光币
104516 枚
贡献
142813 点
发表于 2018-12-6 21:35:29 | 显示全部楼层 |阅读模式

温柔的钩子 The.Tender.Hook.2008.1080p.BluRay.x264-HD4U 6.56GB-1.jpg
温柔的钩子 The.Tender.Hook.2008.1080p.BluRay.x264-HD4U 6.56GB-2.jpg

◎译  名 温柔的钩子
◎片  名 The Tender Hook
◎年  代 2008
◎产  地 澳大利亚
◎类  别 剧情 / 恋爱 / 悬疑 / 犯罪
◎语  言 英语
◎上映日期 2008-09-18
◎IMDb评分 5.6/10 from 415 users
◎IMDb链接 http://www.imdb.com/title/tt0452692
◎豆瓣评分 6.3/10 from 81 users
◎豆瓣链接 https://movie.douban.com/subject/2137144/
◎片  长 100分钟
◎导  演 Jonathan Ogilvie
◎主  演 Rose Byrne
      Hugo Weaving


◎标  签 我看过的电影 | 澳大利亚 | 我看过的英语电影 | 澳大利亚电影 | HugoWeaving | 我看过的可骇电影 | 可骇电影 | 2008

◎简  介  

  悉尼上世纪20年月一个叫IRIS的女子与一个拳击俱乐部老板和年轻拳击手之间的三角爱情


  1. Video
  2. ID                                       : 1
  3. Format                                   : AVC
  4. Format/Info                              : Advanced Video Codec
  5. Format profile                           : [url=/cdn-cgi/l/email-protection][email protected][/url]
  6. Format settings                          : CABAC / 4 Ref Frames
  7. Format settings, CABAC                   : Yes
  8. Format settings, ReFrames                : 4 frames
  9. Codec ID                                 : V_MPEG4/ISO/AVC
  10. Duration                                 : 1 h 43 min
  11. Bit rate                                 : 8 912 kb/s
  12. Width                                    : 1 920 pixels
  13. Height                                   : 1 080 pixels
  14. Display aspect ratio                     : 16:9
  15. Frame rate mode                          : Constant
  16. Frame rate                               : 23.976 (24000/1001) FPS
  17. Color space                              : YUV
  18. Chroma subsampling                       : 4:2:0
  19. Bit depth                                : 8 bits
  20. Scan type                                : Progressive
  21. Bits/(Pixel*Frame)                       : 0.179
  22. Stream size                              : 6.42 GiB (98%)
  23. Writing library                          : x264 core 157 r2935 545de2f
  24. Encoding settings                        : cabac=1 / ref=4 / deblock=1:-3:-3 / analyse=0x3:0x133 / me=umh / subme=9 / psy=1 / psy_rd=1.00:0.00 / mixed_ref=1 / me_range=24 / chroma_me=1 / trellis=1 / 8x8dct=1 / cqm=0 / deadzone=21,11 / fast_pskip=0 / chroma_qp_offset=-2 / threads=18 / lookahead_threads=3 / sliced_threads=0 / nr=0 / decimate=1 / interlaced=0 / bluray_compat=0 / constrained_intra=0 / bframes=8 / b_pyramid=2 / b_adapt=2 / b_bias=0 / direct=3 / weightb=1 / open_gop=0 / weightp=2 / keyint=250 / keyint_min=23 / scenecut=40 / intra_refresh=0 / rc_lookahead=60 / rc=2pass / mbtree=1 / bitrate=8912 / ratetol=1.0 / qcomp=0.60 / qpmin=0 / qpmax=69 / qpstep=4 / cplxblur=20.0 / qblur=0.5 / vbv_maxrate=62500 / vbv_bufsize=78125 / nal_hrd=none / filler=0 / ip_ratio=1.40 / aq=1:1.00
  25. Default                                  : Yes
  26. Forced                                   : No

  27. Audio
  28. ID                                       : 2
  29. Format                                   : AC-3
  30. Format/Info                              : Audio Coding 3
  31. Commercial name                          : Dolby Digital
  32. Codec ID                                 : A_AC3
  33. Duration                                 : 1 h 43 min
  34. Bit rate mode                            : Constant
  35. Bit rate                                 : 192 kb/s
  36. Channel(s)                               : 2 channels
  37. Channel layout                           : L R
  38. Sampling rate                            : 48.0 kHz
  39. Frame rate                               : 31.250 FPS (1536 SPF)
  40. Bit depth                                : 16 bits
  41. Compression mode                         : Lossy
  42. Stream size                              : 142 MiB (2%)
  43. Language                                 : English
  44. Service kind                             : Complete Main
  45. Default                                  : Yes
  46. Forced                                   : No

  47. Menu
  48. 00:00:00.000                             : en:00:00:00.000
  49. 00:10:00.600                             : en:00:10:00.600
  50. 00:20:01.200                             : en:00:20:01.200
  51. 00:30:01.800                             : en:00:30:01.800
  52. 00:40:02.400                             : en:00:40:02.400
  53. 00:50:03.000                             : en:00:50:03.000
  54. 01:00:03.600                             : en:01:00:03.600
  55. 01:10:04.200                             : en:01:10:04.200
  56. 01:20:04.800                             : en:01:20:04.800
  57. 01:30:05.400                             : en:01:30:05.400
复制代码

复制代码

温柔的钩子 The.Tender.Hook.2008.1080p.BluRay.x264-HD4U 6.56GB-3.jpg




回复

使用道具 举报

懒得打字嘛,点击右侧快捷回复 【右侧内容,后台自定义】
您需要登录后才可以回帖 登录 | 立即注册

本版积分规则

QQ|Archiver|手机版|小黑屋|中国高清网 |网站地图

GMT+8, 2018-12-14 16:12 , Processed in 0.109258 second(s), 41 queries .

Powered by HDchina X3.4

Copyright 2017-2018©HDchina.All right reserved

返回顶部 联系我们