你所知道的4K资源这里全部都有 4K电影 | 4K视频 | 4K壁纸 | 4K MV 怎么播放4K视频 | 4K电视演示片

教你玩转4K私人与家庭影院存储 NAS组装 | 黑群辉 家庭/影院Nas论坛

4K家庭影院信号源与视频设备知识 4K蓝光高清播放机 - 那个品牌好? 4K投影机论坛 | 4K电视机论坛

手把手教你搭建属于自己的家庭影院 4K家庭影院案例 | 家庭影院音频 4K家庭影院论坛

查看: 114|回复: 1

[惊悚片] 一定要抓住 The.Chase.2017.KOREAN.DC.720p.BluRay.x264-WiKi 5.93GB

[复制链接]

 成长值: 420

级别:资源管理组

注册时间
2017-10-20
最后登录
2019-2-21
听众
0
收听
0
主题
74871
蓝光币
125838 枚
贡献
144680 点
发表于 2018-12-6 21:34:51 | 显示全部楼层 |阅读模式

, c$ u# ]. z0 A0 D% T) ]% c8 I) e 一定要捉住 The.Chase.2017.KOREAN.DC.720p.BluRay.x264-WiKi 5.93GB-1.jpg 3 k4 d) K7 n' @4 j0 K+ S2 Y) D
一定要捉住 The.Chase.2017.KOREAN.DC.720p.BluRay.x264-WiKi 5.93GB-2.jpg 6 m8 C$ y  y" q9 k! E
/ n/ y; P* b2 _! i; ^
◎译  名 一定要捉住 / The Chase
  h: i7 M+ ^8 X" t& @: h+ s◎片  名 ??? ???. J9 c7 h: v% l0 i
◎年  代 2017) b9 {, p7 A" k" o- Q) q
◎产  地 韩国. P1 \# n2 j3 h$ Q7 Q, o+ _$ z
◎类  别 惊悚 / 犯罪
& C4 V0 T' t% ]7 T' y4 [' M, [$ o◎语  言 韩语0 o! G- H( `/ y2 U& A
◎上映日期 2017-11-29(韩国)6 G% j6 H0 j' V8 y1 r+ ]+ k5 \
◎IMDb评分 6.5/10 from 541 users
& k8 u7 z0 ^3 x8 F- f- p% q# W- H◎IMDb链接 http://www.imdb.com/title/tt80889443 J8 p0 w& L" H  l' v/ Z  }
◎豆瓣评分 6.6/10 from 2265 users3 {- y$ ~# G, a# B$ [  Q( |* f
◎豆瓣链接 https://movie.douban.com/subject/26945132/! g6 R2 U7 Y1 t% v% ~
◎片  长 110分钟
& `$ }) a- i/ y% Z◎导  演 金泓善 Hong-sun Kim
7 d# b8 h/ J; N2 d◎编  剧 李赞荣 Chan-yeong Lee / 柳卡烈 Kab-yeol Yoo7 z* z- e0 z4 T5 c* K
◎主  演 白润植 Yun-shik Baek
# R2 b: O# U9 m2 `' u      成东日 Dong-il Sung
) v0 d6 ~% G$ m! I0 h5 _0 B5 b      千虎珍 Ho-jin Jeon
, e5 ^6 Q8 E) E4 `( v$ A      裴宗玉 Chong-ok Bae
$ W  h# N, h, k/ x4 ^& {      赵达焕 Dal-hwan Jo
! O& B0 k! r6 x2 h      朴亨洙 Park Hyoung-soo6 `0 W( {7 ]. c& w0 q" c
      孙钟学 Jong-Hak Son8 M& E0 k3 @" ]7 z( c0 D0 L& `
      李坎熙 Lee Kan-hee
/ c$ [# P2 i% }. U" L7 `: y3 `/ Y      朴智賢 Park Ji-hyun& B1 F( g1 j1 @1 S
      金思英 Kim Si-yeong
! J4 y* ]8 N: B8 w( V      吴熙俊 Hee-joon Oh
; l2 `; n9 A1 q, E      高圭弼 Ko Kyu-pil% u" m! U( `7 j" a$ h/ v
      金善荷 Kim Seon-ha
7 u5 `/ q% b2 ~; |) o      吴炽垣 Chi-woon Oh
# e9 a0 F0 Q9 {# ]+ O0 K" H+ }/ i      申文成 Mun-sung Shin
1 ^/ X* j2 c1 ?! |7 m( D      金民尚 Kim Min-sang2 k' D! D+ U* U
      李民雄 Min-woong Lee! T# k9 t; `$ [
      孙成灿 Son Seong-chan
( v2 P8 J3 H( V& o1 B" J  ?& f, _% i      刘在明 Jae-myung Yoo) P. d2 H* \/ x' @3 ^
      郑侑敏 Yoo-min Jung
' o: \1 i% @: Z  i6 c/ C& u. O
, z: M4 |+ E/ {0 ]
9 F0 _7 |' h) J7 G4 r: h◎标  签 韩国 | 犯罪 | 悬疑 | 惊悚 | 2017 | 剧情 | 罪案 | 老人7 D4 i2 m; H. i

' W- S% E" N9 B' w( z6 V1 X◎简  介  ! E' o4 h1 `0 N2 K$ K. _

3 I4 m1 U+ E; e5 U. B  电影报告了追踪未了案事务凶手的故事。杀人案再次发生,犯罪手法居然与30年前一路未了案事务如出一辙。很是领会小区的老人和很是领会事务的前职刑 警用直觉与感受起头追踪凶手....
0 Q. q' m$ q2 z+ _2 T
' U! D. k% d* ]* l2 i! N) O2 ^6 U
  1. + p7 D+ S( l3 y% w) W- J5 ~
  2. Video5 X& h+ S& Y4 {4 l
  3. ID                                       : 10 B/ {( x, A1 I+ Z
  4. Format                                   : AVC5 D  ]  F5 P' K4 [; Z$ l
  5. Format/Info                              : Advanced Video Codec
    , \- `! K. y) [8 F3 X2 N, @
  6. Format profile                           : [url=/cdn-cgi/l/email-protection][email protected][/url]7 W; f8 Y5 D7 _: b/ a6 x
  7. Format settings                          : CABAC / 12 Ref Frames
    ! a  x4 G+ U! ^0 q- L
  8. Format settings, CABAC                   : Yes
    5 q* @! D& G' ?% {: X: ]
  9. Format settings, ReFrames                : 12 frames  Q+ z- K" z; p
  10. Codec ID                                 : V_MPEG4/ISO/AVC
    2 C  O0 X: S6 X2 Z. J1 D
  11. Duration                                 : 2 h 2 min$ v3 |- P: E+ t8 d6 c& u
  12. Bit rate                                 : 6 313 kb/s! Y0 p: _* `6 n
  13. Width                                    : 1 280 pixels
    $ b3 D! C& Y3 @
  14. Height                                   : 536 pixels) F8 S0 F- h  J+ _; e2 p
  15. Display aspect ratio                     : 2.40:1: ?0 y+ E! g) m$ f% P  q' O/ K+ m1 }
  16. Frame rate mode                          : Constant
    " ?5 b; C, h* l; E7 |
  17. Frame rate                               : 23.976 (24000/1001) FPS# r# t0 ^  Y6 d+ b
  18. Color space                              : YUV
    $ _% G7 X  {# {5 B8 e; L4 w
  19. Chroma subsampling                       : 4:2:0
    9 |* a% E6 j# w' G$ ~- B7 P3 c
  20. Bit depth                                : 8 bits
    " U/ p- u# q: A7 h
  21. Scan type                                : Progressive
    ) L6 @/ m6 X5 x# n% K
  22. Bits/(Pixel*Frame)                       : 0.384
    ; M" H; O7 G5 `, z9 t5 U) g
  23. Stream size                              : 5.39 GiB (91%)
    * f3 u. I2 ~: ?) p$ ]+ B; m
  24. Writing library                          : x264 core 155 r2867+82 a249126 t_mod_Custom_2 [[url=/cdn-cgi/l/email-protection][email protected][/url] X86_64]9 n4 U! R  I0 b% t
  25. Encoding settings                        : cabac=1 / ref=12 / deblock=1:-3:-3 / analyse=0x3:0x133 / me=umh / subme=10 / psy=1 / fade_compensate=0.00 / psy_rd=1.00:0.00 / mixed_ref=1 / me_range=32 / chroma_me=1 / trellis=2 / 8x8dct=1 / cqm=0 / deadzone=21,11 / fast_pskip=0 / chroma_qp_offset=-2 / threads=12 / lookahead_threads=2 / sliced_threads=0 / nr=0 / decimate=0 / interlaced=0 / bluray_compat=0 / constrained_intra=0 / fgo=0 / bframes=9 / b_pyramid=2 / b_adapt=2 / b_bias=0 / direct=3 / weightb=1 / open_gop=0 / weightp=2 / keyint=250 / keyint_min=23 / scenecut=40 / intra_refresh=0 / rc_lookahead=60 / rc=crf / mbtree=0 / crf=15.9000 / qcomp=0.60 / qpmin=0:0:0 / qpmax=69:69:69 / qpstep=4 / vbv_maxrate=62500 / vbv_bufsize=78125 / crf_max=0.0 / nal_hrd=none / filler=0 / ip_ratio=1.40 / pb_ratio=1.30 / aq=3:0.80 / aq-sensitivity=10.00 / aq-factor=1.00:1.00:1.00 / aq2=0 / aq3=0 / zones=324,848,crf=14
      G0 ~# e; k2 _
  26. Default                                  : Yes! h& v: O* U( @$ r' \  N
  27. Forced                                   : No! o7 \# C  j- t; P1 ~! _- \
  28. 1 l5 e! E4 |1 g# k$ c" }
  29. Audio( E4 }8 p. _5 b9 F  O
  30. ID                                       : 2
    , }7 f6 Z# L  g. ^9 W
  31. Format                                   : AC-3$ O7 ]+ @; X0 }/ n9 \
  32. Format/Info                              : Audio Coding 36 p, Z" t2 _+ K: m! g  T
  33. Commercial name                          : Dolby Digital8 N2 O- S' \" V) {3 c( b4 n
  34. Codec ID                                 : A_AC3
    0 W! A  M1 C4 Y% s" }3 J3 w
  35. Duration                                 : 2 h 2 min
    7 ~0 m' R3 S) L( I1 D4 \+ ^
  36. Bit rate mode                            : Constant* e# H( D5 y' W# h  Z1 @
  37. Bit rate                                 : 640 kb/s4 ^2 Z1 l; v! z2 n4 S5 U: U7 s
  38. Channel(s)                               : 6 channels) r, r& q% A3 {8 W! @
  39. Channel layout                           : L R C LFE Ls Rs0 {4 @* |. b- D8 P# p4 q
  40. Sampling rate                            : 48.0 kHz5 o$ W1 k% E4 ~5 W3 g
  41. Frame rate                               : 31.250 FPS (1536 SPF)
    2 Y& b3 H- {5 U# _! v
  42. Bit depth                                : 16 bits( ^& S+ J3 x6 l% p+ R
  43. Compression mode                         : Lossy7 o$ H8 o. t, K  R1 N+ b
  44. Stream size                              : 559 MiB (9%)( `8 h1 z- \! v, v0 U% Y# s/ R
  45. Language                                 : Korean
    + b) O, X1 E$ I# U& P/ q# w7 @
  46. Service kind                             : Complete Main
    : @9 ]. k% @; Z% @8 p% m
  47. Default                                  : Yes% K8 |4 U4 u$ l& o# ?
  48. Forced                                   : No
    ) s) b6 w' y' F$ Y

  49. & c' T7 {; y' I1 B
  50. Text
    & D3 ?" R3 i# p3 A
  51. ID                                       : 3
    / _. L. U- Y- W& F% f! h
  52. Format                                   : UTF-8' X+ A+ O2 u& Y* C- x! d- M& ^
  53. Codec ID                                 : S_TEXT/UTF8
    - X0 I. U/ j/ n/ _, _
  54. Codec ID/Info                            : UTF-8 Plain Text
    . s$ `" @6 D6 M8 K9 G& l
  55. Duration                                 : 1 h 57 min' o9 |( n: I/ V5 S% [
  56. Bit rate                                 : 35 b/s8 o. B* ]& e+ J5 s% J! L
  57. Count of elements                        : 12937 Z$ C) |9 c- k/ Y) @
  58. Stream size                              : 31.0 KiB (0%)0 r; Q; ]; Z) `3 {; J% j& V, j/ Y0 G
  59. Language                                 : English# {' D( L1 }" ~0 V9 i4 ?4 d) S
  60. Default                                  : Yes- I" i0 \8 f# f: B' |5 d  \5 G$ r0 o9 [
  61. Forced                                   : Yes
      v7 w9 P% g& t" y6 l

  62. 9 S( T1 |0 u: L8 q
  63. Menu  f- R7 |% w2 {
  64. 00:00:00.000                             : en:00:00:00.000
    3 S+ [+ ]+ v: ]  ]) Q) m8 J1 S% z
  65. 00:09:38.828                             : en:00:09:38.828' K( o/ j# @. t" v9 s# r& k# c
  66. 00:20:06.789                             : en:00:20:06.789& E' o  S% [9 B4 T
  67. 00:29:39.736                             : en:00:29:39.736. ?. h; t7 S6 G
  68. 00:37:26.661                             : en:00:37:26.661/ {1 Z7 n& `2 G+ P3 q6 B/ Z- _3 f
  69. 00:47:06.198                             : en:00:47:06.198! q9 s3 C- E$ r4 @5 i% ~) z+ Y
  70. 00:53:12.898                             : en:00:53:12.898
    & o# h- U1 ?: m+ A, n; M4 Y- u
  71. 01:01:10.292                             : en:01:01:10.292
    1 Y9 o3 W# i, y& Q" k3 f2 G
  72. 01:09:07.643                             : en:01:09:07.6434 q* a# W0 G8 |1 X: E
  73. 01:16:44.642                             : en:01:16:44.642
    : G% Z* v( T; ?/ c
  74. 01:23:15.908                             : en:01:23:15.908
    1 ~8 t7 I, b; j+ I
  75. 01:32:59.282                             : en:01:32:59.282
      _% i9 A- v# C0 s% \5 T
  76. 01:40:26.187                             : en:01:40:26.187
    " _& L7 D( d, P! o  Z5 e) f
  77. 01:45:56.809                             : en:01:45:56.809& x  W) q: l5 l$ X' q# i
  78. 01:50:39.424                             : en:01:50:39.424
    * b! J/ e# [3 c' L. Y
  79. 01:56:27.189                             : en:01:56:27.189
    " O& [& j1 C1 ^# H: h6 `
复制代码
& ]3 x4 c2 h# k8 O
复制代码, C' |0 C" A" O4 D% I9 a/ J

; J# F  D) |7 P 一定要捉住 The.Chase.2017.KOREAN.DC.720p.BluRay.x264-WiKi 5.93GB-3.png 一定要捉住 The.Chase.2017.KOREAN.DC.720p.BluRay.x264-WiKi 5.93GB-4.png 一定要捉住 The.Chase.2017.KOREAN.DC.720p.BluRay.x264-WiKi 5.93GB-5.png 8 n# ?( O: h5 e$ K' v  e' p

, m8 F' Y+ x! Q- }+ n9 [; \2 m1 x  F

2 L1 M! j& [8 T, F  e2 x6 ^5 Q
  j% g7 V: s  J% p9 G* Y! Z7 p) V9 i: x: j) x6 x2 H1 ^
回复

使用道具 举报

级别:群众演员 Lv.3

注册时间
2018-12-11
最后登录
2019-2-20
听众
0
收听
0
主题
0
蓝光币
209 枚
贡献
0 点
发表于 2019-1-28 09:47:55 | 显示全部楼层
看来要自己去下载字幕了,谢谢分享
回复

使用道具 举报

懒得打字嘛,点击右侧快捷回复 【右侧内容,后台自定义】
您需要登录后才可以回帖 登录 | 立即注册

本版积分规则

QQ|Archiver|手机版|小黑屋|中国高清网 |网站地图

GMT+8, 2019-2-21 15:20 , Processed in 0.149418 second(s), 40 queries .

Powered by HDchina X3.4

Copyright 2017-2018©HDchina.All right reserved

返回顶部 联系我们