你所知道的4K资源这里全部都有 4K电影 | 4K视频 | 4K壁纸 | 4K MV 怎么播放4K视频 | 4K电视演示片

教你玩转4K私人与家庭影院存储 NAS组装 | 黑群辉 家庭/影院Nas论坛

4K家庭影院信号源与视频设备知识 4K蓝光高清播放机 - 那个品牌好? 4K投影机论坛 | 4K电视机论坛

手把手教你搭建属于自己的家庭影院 4K家庭影院案例 | 家庭影院音频 4K家庭影院论坛

查看: 216|回复: 3

[惊悚片] 一定要抓住 The.Chase.2017.KOREAN.DC.720p.BluRay.x264-WiKi 5.93GB

[复制链接]

 成长值: 1380

级别:资源管理组

注册时间
2017-10-20
最后登录
2019-5-26
听众
0
收听
0
主题
77703
蓝光币
19880 枚
贡献
2024 点
发表于 2018-12-6 21:34:51 | 显示全部楼层 |阅读模式

. Y, p) p3 L1 K2 s5 T! Y) w 一定要捉住 The.Chase.2017.KOREAN.DC.720p.BluRay.x264-WiKi 5.93GB-1.jpg
2 J/ F2 e! d4 a5 m( v; A1 D9 x 一定要捉住 The.Chase.2017.KOREAN.DC.720p.BluRay.x264-WiKi 5.93GB-2.jpg 8 n0 m3 A. k* E2 c" L

& t6 ~% M, q" J; |2 g- r◎译  名 一定要捉住 / The Chase
+ O4 u1 w. @. C# {& ?+ F◎片  名 ??? ???
4 e& k# b$ {% r" G5 a◎年  代 2017& `5 ?; o& f* y3 r/ f, C, X
◎产  地 韩国  p/ `' `  z1 h! n  F, X3 [/ A
◎类  别 惊悚 / 犯罪) E3 _) L: p7 q6 h3 b( J
◎语  言 韩语( ^) J. F! C- |: Y9 N& @
◎上映日期 2017-11-29(韩国)
! X' c8 w6 w" _◎IMDb评分 6.5/10 from 541 users
% j. X% B9 m" r◎IMDb链接 http://www.imdb.com/title/tt8088944
( {8 C* n8 b$ Q◎豆瓣评分 6.6/10 from 2265 users& H9 N! e1 m: D: q. f
◎豆瓣链接 https://movie.douban.com/subject/26945132/2 X# G: ]- I! }
◎片  长 110分钟
( q; ]: ~: }. V) k8 e  d0 I3 [◎导  演 金泓善 Hong-sun Kim
0 \8 A( Z1 N; ?2 @◎编  剧 李赞荣 Chan-yeong Lee / 柳卡烈 Kab-yeol Yoo
/ |  I. ^; u. o! w◎主  演 白润植 Yun-shik Baek
. f4 u2 L! W2 V7 d1 T$ I      成东日 Dong-il Sung8 p3 l1 ~7 r$ J& H2 E( Y
      千虎珍 Ho-jin Jeon
, u+ ^& o* A0 Z2 v      裴宗玉 Chong-ok Bae, k/ o  ?7 t  W& \& m
      赵达焕 Dal-hwan Jo5 r' F+ Y, ^+ z$ K/ Y
      朴亨洙 Park Hyoung-soo
9 A& z: F3 o' ]7 @/ y% s3 W      孙钟学 Jong-Hak Son/ h! f- W; D  J0 R$ g( ^
      李坎熙 Lee Kan-hee! a$ T5 f( d, n4 g4 L- K
      朴智賢 Park Ji-hyun2 }3 Z5 a9 _$ A; ]3 @. I2 z" U6 q
      金思英 Kim Si-yeong6 G) J. J3 {9 \
      吴熙俊 Hee-joon Oh* E6 R+ v/ A) M! e! U
      高圭弼 Ko Kyu-pil* B% R. I$ Y: Z! C# w
      金善荷 Kim Seon-ha' e6 U* [0 S- \, P: ~! s
      吴炽垣 Chi-woon Oh/ p4 d$ f; @. S9 G$ n
      申文成 Mun-sung Shin; X9 {8 ?9 S$ ?" W# v/ ?
      金民尚 Kim Min-sang- Y* G2 a% [% N7 `1 f& J! p1 _$ A
      李民雄 Min-woong Lee
9 R" k3 t, j" D, O1 P# t4 L      孙成灿 Son Seong-chan
/ o, r* A! I/ v$ h" u9 S5 l      刘在明 Jae-myung Yoo
& v0 |- T, }6 E+ d      郑侑敏 Yoo-min Jung) w5 \  z; u! w8 D8 }4 J' b" G

4 Z! h( O; X( ^1 w, z( O8 c2 }- ?: ?% e
◎标  签 韩国 | 犯罪 | 悬疑 | 惊悚 | 2017 | 剧情 | 罪案 | 老人5 b/ U; Q$ q6 U
* i3 F; o; w" u7 W0 }/ N
◎简  介    e9 j  D7 R( l/ U  ?+ x; j

4 ^- E7 E: j0 u! b; d  电影报告了追踪未了案事务凶手的故事。杀人案再次发生,犯罪手法居然与30年前一路未了案事务如出一辙。很是领会小区的老人和很是领会事务的前职刑 警用直觉与感受起头追踪凶手....3 g- l2 K4 O: H7 L; ?& [! v4 Y) @

7 L% Y" o1 X% T( ^+ y* e. O$ o& `

  1. 5 X0 l: x! H* G7 l: N
  2. Video
    1 Z, w3 H- b: M8 }2 C. ~4 E7 r2 m& L
  3. ID                                       : 16 h0 {9 ~( n& \* z8 G
  4. Format                                   : AVC
    # |3 k/ ~, X) V( ^6 K
  5. Format/Info                              : Advanced Video Codec+ i8 ?7 b2 o4 s: p) ]
  6. Format profile                           : [url=/cdn-cgi/l/email-protection][email protected][/url]8 k) e, r, [; W/ p
  7. Format settings                          : CABAC / 12 Ref Frames
    ; G1 L7 k7 P( B4 t# t) F% [
  8. Format settings, CABAC                   : Yes+ W# U$ A3 E0 v
  9. Format settings, ReFrames                : 12 frames
    , A' y; }- o# {3 _  C; E
  10. Codec ID                                 : V_MPEG4/ISO/AVC
    0 ]% Z: U+ V* [, H" P: ]
  11. Duration                                 : 2 h 2 min
    3 C4 Y# @2 m# s1 R. x' A+ B" U
  12. Bit rate                                 : 6 313 kb/s
    2 Z9 R6 Y0 d# Y6 M
  13. Width                                    : 1 280 pixels0 I' e$ @3 n6 u9 X
  14. Height                                   : 536 pixels
    2 w& J: ^7 w0 g% Z
  15. Display aspect ratio                     : 2.40:1
    - Z0 G8 e% B; ^# k7 Y2 G+ O3 x3 u$ ^
  16. Frame rate mode                          : Constant
    % q# a" T. C3 Z6 P2 C
  17. Frame rate                               : 23.976 (24000/1001) FPS
    / k3 U+ N% J# x* c; q8 I
  18. Color space                              : YUV( S0 c. m, z! F* ^; p! R- t3 M
  19. Chroma subsampling                       : 4:2:0! Z' W6 D% {  V0 G! l; q
  20. Bit depth                                : 8 bits
    " k; ?" ]8 @" r0 H9 K
  21. Scan type                                : Progressive
    / k% t: |/ R7 D5 k8 z* L2 L
  22. Bits/(Pixel*Frame)                       : 0.384
    : O0 q; \1 j- Z' i3 h1 D# y
  23. Stream size                              : 5.39 GiB (91%)% u9 b' b/ o( [& w1 }$ q
  24. Writing library                          : x264 core 155 r2867+82 a249126 t_mod_Custom_2 [[url=/cdn-cgi/l/email-protection][email protected][/url] X86_64]/ O: T. J" s8 w. w6 ~+ ~: P# M* s
  25. Encoding settings                        : cabac=1 / ref=12 / deblock=1:-3:-3 / analyse=0x3:0x133 / me=umh / subme=10 / psy=1 / fade_compensate=0.00 / psy_rd=1.00:0.00 / mixed_ref=1 / me_range=32 / chroma_me=1 / trellis=2 / 8x8dct=1 / cqm=0 / deadzone=21,11 / fast_pskip=0 / chroma_qp_offset=-2 / threads=12 / lookahead_threads=2 / sliced_threads=0 / nr=0 / decimate=0 / interlaced=0 / bluray_compat=0 / constrained_intra=0 / fgo=0 / bframes=9 / b_pyramid=2 / b_adapt=2 / b_bias=0 / direct=3 / weightb=1 / open_gop=0 / weightp=2 / keyint=250 / keyint_min=23 / scenecut=40 / intra_refresh=0 / rc_lookahead=60 / rc=crf / mbtree=0 / crf=15.9000 / qcomp=0.60 / qpmin=0:0:0 / qpmax=69:69:69 / qpstep=4 / vbv_maxrate=62500 / vbv_bufsize=78125 / crf_max=0.0 / nal_hrd=none / filler=0 / ip_ratio=1.40 / pb_ratio=1.30 / aq=3:0.80 / aq-sensitivity=10.00 / aq-factor=1.00:1.00:1.00 / aq2=0 / aq3=0 / zones=324,848,crf=14) v9 X. j7 H# z2 \
  26. Default                                  : Yes3 A0 T0 C) Y, K0 r
  27. Forced                                   : No- e$ Z+ {* z% m$ l* w
  28. ( K' M( _% J# j: D. I
  29. Audio
    4 D7 ~  ?, W% p$ C3 Y8 V
  30. ID                                       : 2
    0 h3 K) W  K4 M  }& ?
  31. Format                                   : AC-3
    * b$ O7 G/ d; H- }9 U6 [
  32. Format/Info                              : Audio Coding 3
    * u9 F3 Y- y# i3 `, ~
  33. Commercial name                          : Dolby Digital
    8 x6 O% a, p1 t
  34. Codec ID                                 : A_AC3% ~5 ~2 }5 D/ F+ J# r/ Z1 e
  35. Duration                                 : 2 h 2 min
    # A) k+ l! G+ G8 n+ a
  36. Bit rate mode                            : Constant
    0 k6 i  U* d4 n( e, U
  37. Bit rate                                 : 640 kb/s
    & H9 d6 A3 Q# P: d8 ]
  38. Channel(s)                               : 6 channels
    ( Y5 `# ]" P/ [
  39. Channel layout                           : L R C LFE Ls Rs
    ' j2 n2 [1 k) ]( h# S( r
  40. Sampling rate                            : 48.0 kHz" [0 Y' a3 y, W9 h& A& H
  41. Frame rate                               : 31.250 FPS (1536 SPF)
    ; m! b  C- s. o- q0 [
  42. Bit depth                                : 16 bits
    1 s3 @. Z( V$ `8 s+ z( K" R" R
  43. Compression mode                         : Lossy
    4 Q' ^' G5 r' z$ D4 Z0 m8 O3 _
  44. Stream size                              : 559 MiB (9%)
    # @1 M* Z/ G0 m* Y
  45. Language                                 : Korean& ?1 X- d+ G+ V1 G% Z% I+ w
  46. Service kind                             : Complete Main
    0 M1 W0 p. m: b) F+ _# Y
  47. Default                                  : Yes
    9 y: Z/ S% F% d1 |. I
  48. Forced                                   : No
    5 S4 s. q& u. L& }5 t
  49. 7 h- C6 R1 m: N$ r
  50. Text
    ! @* z- L, v. M, q5 u
  51. ID                                       : 37 }; z) Z" ?7 g4 Z+ b- C
  52. Format                                   : UTF-8
    : c& w1 h% }: P+ N0 w" K$ \, A
  53. Codec ID                                 : S_TEXT/UTF8' E! V$ _6 E" K1 V
  54. Codec ID/Info                            : UTF-8 Plain Text' Z5 C( P# E% o/ |7 ]) ~/ G$ Y4 T
  55. Duration                                 : 1 h 57 min5 Q) }, g0 k! D) [) G
  56. Bit rate                                 : 35 b/s
    2 |6 ?' i% {' L4 z) T5 }, ^5 p( @
  57. Count of elements                        : 1293. B. ~3 h0 O% t. \" d. s$ [
  58. Stream size                              : 31.0 KiB (0%)
    ( o% i1 G3 q! L% k  L* g1 J
  59. Language                                 : English' B1 I- _2 Y" |1 i; J( w
  60. Default                                  : Yes* k& t+ }1 H; h3 R# j* N* _
  61. Forced                                   : Yes6 Y9 _; }4 X6 s$ Y, p7 P$ ]$ C2 l* @

  62. 6 u8 U/ L/ B& G. N
  63. Menu
    ! t4 L- Z) r, d# l4 H& ]
  64. 00:00:00.000                             : en:00:00:00.000
    $ K; \; U# _7 n" z, V2 b5 ?
  65. 00:09:38.828                             : en:00:09:38.828
    0 Y3 m6 C! [+ R9 |5 `7 t4 j+ }& y
  66. 00:20:06.789                             : en:00:20:06.789  y# u" P4 q. Q% p4 s4 Z
  67. 00:29:39.736                             : en:00:29:39.736
    9 q, Y- N1 Q' h$ s
  68. 00:37:26.661                             : en:00:37:26.661( a. J! [: a# G7 Y
  69. 00:47:06.198                             : en:00:47:06.198
    ; T' A" N/ y% G! x/ _  O
  70. 00:53:12.898                             : en:00:53:12.8985 d; P- l% ~" G. L3 s8 C% h
  71. 01:01:10.292                             : en:01:01:10.292
    3 P+ N! U, O5 H5 y: \. j
  72. 01:09:07.643                             : en:01:09:07.643
    ! x, j5 D9 I8 w# f0 _3 Z4 ?
  73. 01:16:44.642                             : en:01:16:44.642# Y5 g& I1 c! ~* L  v# W) R. _
  74. 01:23:15.908                             : en:01:23:15.908' s5 n/ K! v3 a% q) l4 X' o9 A0 o
  75. 01:32:59.282                             : en:01:32:59.2827 e# b; R- D$ \4 N% U
  76. 01:40:26.187                             : en:01:40:26.187% c! V3 d4 M* w% u* p$ Q. E
  77. 01:45:56.809                             : en:01:45:56.809
    : g+ J! Z% U8 X2 j
  78. 01:50:39.424                             : en:01:50:39.424
    5 j. U# l% {/ n- _
  79. 01:56:27.189                             : en:01:56:27.189
    ' v) P  A2 k1 A- P1 e
复制代码
* h8 K) R4 P  Z+ I
复制代码' E$ i1 j  M1 @' _) ]: h1 P5 J
# H- ^! |! G1 b0 L7 ]6 M" r
一定要捉住 The.Chase.2017.KOREAN.DC.720p.BluRay.x264-WiKi 5.93GB-3.png 一定要捉住 The.Chase.2017.KOREAN.DC.720p.BluRay.x264-WiKi 5.93GB-4.png 一定要捉住 The.Chase.2017.KOREAN.DC.720p.BluRay.x264-WiKi 5.93GB-5.png
4 c3 h; X  F. x8 n
. U( b, L7 ^1 p3 o# [: {% a) }% C% c2 x
  u9 U6 u: A! g% K' H$ W7 S

8 O' {$ k$ |+ E! r0 I2 x& X
/ v9 j; s7 d- T) m, _4 w+ f
回复

使用道具 举报

级别:专业龙套 Lv.4

注册时间
2018-12-11
最后登录
2019-5-5
听众
3
收听
0
主题
0
蓝光币
443 枚
贡献
0 点
发表于 2019-1-28 09:47:55 | 显示全部楼层
看来要自己去下载字幕了,谢谢分享
回复

使用道具 举报

级别:普通观众 Lv.2

注册时间
2018-6-10
最后登录
2019-5-26
听众
4
收听
0
主题
0
蓝光币
5 枚
贡献
0 点
发表于 2019-4-5 21:22:28 | 显示全部楼层
楼主发贴辛苦了,谢谢楼主分享!我觉得中国高清电影网是注册对了!
回复

使用道具 举报

级别:群众演员 Lv.3

注册时间
2019-4-24
最后登录
2019-5-26
听众
1
收听
0
主题
0
蓝光币
20 枚
贡献
0 点
发表于 2019-4-28 10:51:41 | 显示全部楼层
; g$ f9 f6 H" k& ], i# o
论坛不能没有像楼主这样的人才啊!我会一直支持中国高清电影网
回复

使用道具 举报

*滑动验证:
懒得打字嘛,点击右侧快捷回复 【右侧内容,后台自定义】
您需要登录后才可以回帖 登录 | 立即注册

本版积分规则

QQ|Archiver|手机版|小黑屋| 中国高清网 |网站地图

GMT+8, 2019-5-27 01:01 , Processed in 0.168945 second(s), 46 queries .

Powered by HDchina X3.4

Copyright 2017-2019©HDchina.All right reserved

返回顶部 联系我们