你所知道的4K资源这里全部都有 4K电影 | 4K视频 | 4K壁纸 | 4K MV 怎么播放4K视频 | 4K电视演示片

教你玩转4K私人与家庭影院存储 NAS组装 | 黑群辉 家庭/影院Nas论坛

4K家庭影院信号源与视频设备知识 4K蓝光高清播放机 - 那个品牌好? 4K投影机论坛 | 4K电视机论坛

手把手教你搭建属于自己的家庭影院 4K家庭影院案例 | 家庭影院音频 4K家庭影院论坛

查看: 28|回复: 0

[惊悚片] 一定要抓住 The.Chase.2017.KOREAN.DC.720p.BluRay.x264-WiKi 5.93GB

[复制链接]

级别:资源管理组

UID
1
注册时间
2017-10-20
最后登录
2018-12-14
听众
0
收听
0
主题
73005
蓝光币
104512 枚
贡献
142813 点
发表于 2018-12-6 21:34:51 | 显示全部楼层 |阅读模式

! S* S1 \6 f0 c: B 一定要捉住 The.Chase.2017.KOREAN.DC.720p.BluRay.x264-WiKi 5.93GB-1.jpg
1 m8 [! W1 G9 x) L& ~& O 一定要捉住 The.Chase.2017.KOREAN.DC.720p.BluRay.x264-WiKi 5.93GB-2.jpg ! p- _5 ~# T* P: y) B/ M
! U. B' J1 `0 X" S8 y$ \
◎译  名 一定要捉住 / The Chase
5 q# j3 @6 p8 H5 a/ w◎片  名 ??? ???
" E+ ?: |9 a% j: f* g" K/ E7 V◎年  代 2017
8 H5 a. D# f4 n/ y  x1 c◎产  地 韩国" P# j. V+ E2 F
◎类  别 惊悚 / 犯罪
0 F# k6 E1 X5 `* G◎语  言 韩语
9 p* j/ P6 D) L◎上映日期 2017-11-29(韩国)3 P' X  R4 W2 z
◎IMDb评分 6.5/10 from 541 users* _0 l' m& a0 ~$ l5 g1 _: n. P
◎IMDb链接 http://www.imdb.com/title/tt8088944
% }- N' ?* r6 {8 ]◎豆瓣评分 6.6/10 from 2265 users
5 f) h- ]& ?) L, p◎豆瓣链接 https://movie.douban.com/subject/26945132/
  s' [9 O; ~. j9 n, ^3 z2 v( k' W◎片  长 110分钟" W7 C7 ^( t# I5 J
◎导  演 金泓善 Hong-sun Kim% g" n8 u3 ^, `& X1 @
◎编  剧 李赞荣 Chan-yeong Lee / 柳卡烈 Kab-yeol Yoo
* f, \+ G0 u& G+ b  k9 z* \◎主  演 白润植 Yun-shik Baek
$ i! f" e" H: l$ m      成东日 Dong-il Sung
1 Z6 I9 q. H! T0 l( \# h! e9 r      千虎珍 Ho-jin Jeon0 A1 D; Q1 V) Z3 l, S% Y
      裴宗玉 Chong-ok Bae
9 [- Z% M- l* U4 g# d4 [      赵达焕 Dal-hwan Jo
# n' y; }- r6 }" z$ j" @      朴亨洙 Park Hyoung-soo. w7 ?. N+ T& m  h6 C8 \3 l% B
      孙钟学 Jong-Hak Son
! z! @5 }. Y' m$ U6 r- t; H5 u      李坎熙 Lee Kan-hee
/ n' @8 O' k/ G8 {" }/ N      朴智賢 Park Ji-hyun; G. S( n7 w( K; h& ]
      金思英 Kim Si-yeong7 t2 I! b  Q5 s% S
      吴熙俊 Hee-joon Oh
" a' i3 ^  n5 _! [# ~/ p9 {      高圭弼 Ko Kyu-pil) |2 m2 D& j: Y+ }8 d
      金善荷 Kim Seon-ha
+ t+ G4 O# K; G; b* y6 s7 o5 I, H1 M      吴炽垣 Chi-woon Oh' h6 b0 u7 ^5 e  m* j6 r* q
      申文成 Mun-sung Shin6 b, x; e8 h$ p3 V3 I
      金民尚 Kim Min-sang2 }( }2 [1 ]; {; @8 N
      李民雄 Min-woong Lee8 P+ O0 O* {! l$ p( g9 O
      孙成灿 Son Seong-chan
" _1 \) B% H+ ~9 l      刘在明 Jae-myung Yoo0 H0 C+ F; Y7 d, \: }( p
      郑侑敏 Yoo-min Jung/ j- {% }* r5 {: _# o

3 x7 P* K& c7 H
1 m( R# v2 d& g/ R" b: e◎标  签 韩国 | 犯罪 | 悬疑 | 惊悚 | 2017 | 剧情 | 罪案 | 老人
+ G: C" X8 E) x, w8 @, ?% r
9 k% N  T' ~' V◎简  介  
0 g& ]9 u3 M- C" Z
( J( N& ~! q& ]( V$ Y; w) b  电影报告了追踪未了案事务凶手的故事。杀人案再次发生,犯罪手法居然与30年前一路未了案事务如出一辙。很是领会小区的老人和很是领会事务的前职刑 警用直觉与感受起头追踪凶手....
0 |/ F+ J9 J, d5 Q( e, ^( h" R/ h' m! c7 Q( s: z
  1. 2 a1 {1 v$ E5 `7 x8 U
  2. Video, f$ M! l4 l1 O" r
  3. ID                                       : 10 c# W6 v5 w) h2 V
  4. Format                                   : AVC
    7 a9 X9 L+ `4 ?5 @! \- {
  5. Format/Info                              : Advanced Video Codec
    & H8 ]0 k6 x  e: Z. i: M; A( E* a
  6. Format profile                           : [url=/cdn-cgi/l/email-protection][email protected][/url]/ @5 p5 p/ `# k! c) z* `# Z& Y4 d
  7. Format settings                          : CABAC / 12 Ref Frames
    - Z4 g% h$ V& m3 d6 k0 k1 }
  8. Format settings, CABAC                   : Yes
    0 a/ g! T' X0 W  n% q
  9. Format settings, ReFrames                : 12 frames
    * |" T  j7 n& H) L7 n0 Q, V! u( [% T, Y
  10. Codec ID                                 : V_MPEG4/ISO/AVC4 P- [# Y! C  g+ x: \* r' Y& h
  11. Duration                                 : 2 h 2 min
    ; a/ m7 d: N8 `% ^
  12. Bit rate                                 : 6 313 kb/s
    0 x% q1 \. K& D& {/ e; x8 [2 @" v
  13. Width                                    : 1 280 pixels
    ; J' b% t# K  A. o5 L
  14. Height                                   : 536 pixels
    ) O8 ~* A1 p! R, B1 s0 u
  15. Display aspect ratio                     : 2.40:15 j! ^9 B$ h7 z( v+ U
  16. Frame rate mode                          : Constant
    4 l1 J8 T/ p, o& {2 a! `0 U
  17. Frame rate                               : 23.976 (24000/1001) FPS- v- }- I) T9 H3 L8 I1 v& x8 u5 A
  18. Color space                              : YUV7 |3 ?+ G0 w( L/ p
  19. Chroma subsampling                       : 4:2:0/ U2 K3 q4 x+ l
  20. Bit depth                                : 8 bits
    ; U9 u! Y1 r/ ?; n
  21. Scan type                                : Progressive
    4 K3 W( l( @/ b; n0 X- p
  22. Bits/(Pixel*Frame)                       : 0.384
    & ~$ n% @* o  n; E. B
  23. Stream size                              : 5.39 GiB (91%)
    0 f" o5 }; J7 f( |3 X1 h; E1 m# K: A
  24. Writing library                          : x264 core 155 r2867+82 a249126 t_mod_Custom_2 [[url=/cdn-cgi/l/email-protection][email protected][/url] X86_64]; r" J& H& T4 t- D$ |4 S
  25. Encoding settings                        : cabac=1 / ref=12 / deblock=1:-3:-3 / analyse=0x3:0x133 / me=umh / subme=10 / psy=1 / fade_compensate=0.00 / psy_rd=1.00:0.00 / mixed_ref=1 / me_range=32 / chroma_me=1 / trellis=2 / 8x8dct=1 / cqm=0 / deadzone=21,11 / fast_pskip=0 / chroma_qp_offset=-2 / threads=12 / lookahead_threads=2 / sliced_threads=0 / nr=0 / decimate=0 / interlaced=0 / bluray_compat=0 / constrained_intra=0 / fgo=0 / bframes=9 / b_pyramid=2 / b_adapt=2 / b_bias=0 / direct=3 / weightb=1 / open_gop=0 / weightp=2 / keyint=250 / keyint_min=23 / scenecut=40 / intra_refresh=0 / rc_lookahead=60 / rc=crf / mbtree=0 / crf=15.9000 / qcomp=0.60 / qpmin=0:0:0 / qpmax=69:69:69 / qpstep=4 / vbv_maxrate=62500 / vbv_bufsize=78125 / crf_max=0.0 / nal_hrd=none / filler=0 / ip_ratio=1.40 / pb_ratio=1.30 / aq=3:0.80 / aq-sensitivity=10.00 / aq-factor=1.00:1.00:1.00 / aq2=0 / aq3=0 / zones=324,848,crf=14
    & \: g" i. ~/ e0 _6 u* d4 A2 ~) X. k
  26. Default                                  : Yes9 h. m+ |% J/ a6 O9 E+ ?8 E
  27. Forced                                   : No
    ) O* k5 n9 z9 f' h; h5 z
  28. % Y! X6 A. f# L. h# Y2 w
  29. Audio
    ( }! h( P8 p5 g, }. v, s1 y
  30. ID                                       : 2! J$ \3 I3 b: ~- A1 \
  31. Format                                   : AC-3
    : ?& Z$ l  M" L+ G5 B% w, u; J
  32. Format/Info                              : Audio Coding 3! R' L) K1 `! D' h( x3 K* P# t
  33. Commercial name                          : Dolby Digital1 O, ]  Y6 d3 v
  34. Codec ID                                 : A_AC3
    ) N: X- R3 J  w! e
  35. Duration                                 : 2 h 2 min3 u0 e& M4 Q. n! p  @  G$ c, D
  36. Bit rate mode                            : Constant/ r. |& x! Z1 D
  37. Bit rate                                 : 640 kb/s" ?8 o) u1 t/ j' S( n2 p$ h
  38. Channel(s)                               : 6 channels
    % J# N7 n7 n# t
  39. Channel layout                           : L R C LFE Ls Rs
    3 r5 y6 t1 Z8 G5 N3 C/ c" ^
  40. Sampling rate                            : 48.0 kHz
    4 {+ g8 T% r  p, g! o2 p# `0 ?3 A
  41. Frame rate                               : 31.250 FPS (1536 SPF)
      v: J# R6 t6 G, _$ V1 j
  42. Bit depth                                : 16 bits
    5 A! |, D# l; s
  43. Compression mode                         : Lossy
    7 D7 ^( n- z- c$ E; K8 ]
  44. Stream size                              : 559 MiB (9%)
    3 b2 y7 g! p8 N& F, v/ V* p% D) r
  45. Language                                 : Korean
    ( J2 K( r# C8 Q+ \; v4 @& v
  46. Service kind                             : Complete Main0 S1 s4 z& Y, H2 P4 d
  47. Default                                  : Yes
    6 Y3 F7 J8 c% }+ `
  48. Forced                                   : No
    2 o7 x- U. H7 L# Z
  49. 9 E0 _( Q# Y- H4 y. i) ?3 O
  50. Text2 {/ k1 G# R3 t6 Y/ L
  51. ID                                       : 30 y& [$ h9 T/ e; a" \
  52. Format                                   : UTF-8# K2 W# u9 \3 h
  53. Codec ID                                 : S_TEXT/UTF8
    - q+ Z6 D- _0 k/ W
  54. Codec ID/Info                            : UTF-8 Plain Text
    " t" [+ T: h1 a9 \1 I8 h; A9 I5 H
  55. Duration                                 : 1 h 57 min
    3 k4 n/ T7 @, ~5 p9 u
  56. Bit rate                                 : 35 b/s
    6 n6 |/ b- t" e/ Y% A# E
  57. Count of elements                        : 1293
    4 e1 k  A! k$ N" V! d
  58. Stream size                              : 31.0 KiB (0%)
    9 r4 y( v; c2 T! M+ b. G
  59. Language                                 : English
    3 I7 A* V% {9 z3 ?: Y, ^% P6 t
  60. Default                                  : Yes' @' _& H+ k! p& S8 _
  61. Forced                                   : Yes
    1 [+ U5 d! V# s4 l& e" I
  62. : c- n: O$ {/ V3 S5 ^5 Q
  63. Menu3 L( F" T9 A6 u( ~5 @
  64. 00:00:00.000                             : en:00:00:00.000
    1 C) W3 `3 K! n
  65. 00:09:38.828                             : en:00:09:38.828; o9 v/ Z" z7 Y9 A) i( g+ a
  66. 00:20:06.789                             : en:00:20:06.789: a$ P6 U+ g% ~* N4 B; e4 a
  67. 00:29:39.736                             : en:00:29:39.736& r- G$ ~7 Y  T7 S3 T8 r+ @
  68. 00:37:26.661                             : en:00:37:26.661
    4 u- n6 X. `3 a/ D
  69. 00:47:06.198                             : en:00:47:06.198
    2 V  I. V( I- d; ?0 V
  70. 00:53:12.898                             : en:00:53:12.898
    ) M, z7 q7 |1 l; ^. I4 h, }6 t
  71. 01:01:10.292                             : en:01:01:10.292
    & ]9 Y, |  |' b6 j
  72. 01:09:07.643                             : en:01:09:07.643
    ! w5 z+ @0 p: u" u+ A, g- y; j
  73. 01:16:44.642                             : en:01:16:44.642, v6 A. `& F( T: @; ?8 Q3 ^
  74. 01:23:15.908                             : en:01:23:15.908# l* f( h4 F& {8 y( r+ K* `
  75. 01:32:59.282                             : en:01:32:59.282% S* j& s0 D# y1 D$ c
  76. 01:40:26.187                             : en:01:40:26.187
    " @4 P  Y6 z- o1 [5 V3 t! R
  77. 01:45:56.809                             : en:01:45:56.809
    . h" ^/ d# T! D7 e
  78. 01:50:39.424                             : en:01:50:39.424
    + l$ d* z2 w* z( u3 i
  79. 01:56:27.189                             : en:01:56:27.1899 s' a. X& o% k# f+ z0 a
复制代码

! s( k1 {" k, j% O6 L0 C复制代码
8 S! d* J+ a7 M# Q1 m& U+ H, {
7 `- Q3 W! ^8 ?7 X 一定要捉住 The.Chase.2017.KOREAN.DC.720p.BluRay.x264-WiKi 5.93GB-3.png 一定要捉住 The.Chase.2017.KOREAN.DC.720p.BluRay.x264-WiKi 5.93GB-4.png 一定要捉住 The.Chase.2017.KOREAN.DC.720p.BluRay.x264-WiKi 5.93GB-5.png
2 p( j3 Y: J- U6 |9 D5 e' g  R( |+ J$ i9 g  ]# c+ x& L

! [+ K6 C' S3 a5 Z7 Y9 R! B. L
  d3 t) P- V- L$ a; |+ m8 s
/ l8 z: D+ B, F) k3 Y
5 F+ u' v; T" P
回复

使用道具 举报

懒得打字嘛,点击右侧快捷回复 【右侧内容,后台自定义】
您需要登录后才可以回帖 登录 | 立即注册

本版积分规则

QQ|Archiver|手机版|小黑屋|中国高清网 |网站地图

GMT+8, 2018-12-14 15:19 , Processed in 0.131374 second(s), 41 queries .

Powered by HDchina X3.4

Copyright 2017-2018©HDchina.All right reserved

返回顶部 联系我们