你所知道的4K资源这里全部都有 4K电影 | 4K视频 | 4K壁纸 | 4K MV 怎么播放4K视频 | 4K电视演示片

教你玩转4K私人与家庭影院存储 NAS组装 | 黑群辉 家庭/影院Nas论坛

4K家庭影院信号源与视频设备知识 4K蓝光高清播放机 - 那个品牌好? 4K投影机论坛 | 4K电视机论坛

手把手教你搭建属于自己的家庭影院 4K家庭影院案例 | 家庭影院音频 4K家庭影院论坛

查看: 120|回复: 2

[剧情片] 温柔的钩子 The.Tender.Hook.2008.720p.BluRay.x264-HD4U 4.37GB

[复制链接]

 成长值: 1380

级别:资源管理组

注册时间
2017-10-20
最后登录
2019-5-26
听众
0
收听
0
主题
77703
蓝光币
19886 枚
贡献
2024 点
发表于 2018-12-6 21:34:09 | 显示全部楼层 |阅读模式

$ o* m) \# b3 j2 q" [ 温柔的钩子 The.Tender.Hook.2008.720p.BluRay.x264-HD4U 4.37GB-1.jpg , A% y/ X) u& o: @" \
温柔的钩子 The.Tender.Hook.2008.720p.BluRay.x264-HD4U 4.37GB-2.jpg
; P  n5 b8 U+ u8 R% {/ m- N5 r
1 U+ c8 H4 j, d  Q* l5 s◎译  名 温柔的钩子
6 ?9 S4 y$ P; q$ i$ x* ]8 n◎片  名 The Tender Hook
' n0 I$ c4 p) e3 `* ~◎年  代 20088 }+ W& ^8 J( k# ]
◎产  地 澳大利亚
) M# m( x- E9 T+ S5 n. L; c: F◎类  别 剧情 / 恋爱 / 悬疑 / 犯罪' A; v1 }, b6 O1 q, C
◎语  言 英语1 d+ _" A! I* z! t- K
◎上映日期 2008-09-18
, C* \  \: L6 @& ^5 O8 K2 Y' f+ }◎IMDb评分 5.6/10 from 415 users3 {5 I+ j5 l  ]
◎IMDb链接 http://www.imdb.com/title/tt0452692$ y! J5 D! ]) S! Q- I4 {7 x" n- |& C" r! u
◎豆瓣评分 6.3/10 from 81 users( p, _) h% I2 B$ `
◎豆瓣链接 https://movie.douban.com/subject/2137144/
) o! z+ X( ]7 K9 {$ P◎片  长 100分钟( U1 k$ Q5 f  [  E. t2 Q( C
◎导  演 Jonathan Ogilvie8 b; \5 `8 ?  a; i
◎主  演 Rose Byrne6 B1 \( }2 e6 f: w1 a: r
      Hugo Weaving7 p4 {1 v$ ^$ u# G; j; t. H
9 [: A5 u% u! L

5 c  T7 F8 D3 Q  g& r◎标  签 我看过的电影 | 澳大利亚 | 我看过的英语电影 | 澳大利亚电影 | HugoWeaving | 我看过的可骇电影 | 可骇电影 | 2008. h9 }% C* L+ V8 W; n3 J6 U
. j0 t! c7 V5 _. @
◎简  介  - Z; l: |. t" P+ `5 b8 ^4 S
1 c# u- y# [  Y9 B8 ?
  悉尼上世纪20年月一个叫IRIS的女子与一个拳击俱乐部老板和年轻拳击手之间的三角爱情" |1 _) a( {8 w5 n' L1 r4 u, P' H4 A
1 S: o3 J+ Z. S. F; s5 ]! [! e
  1. 8 t5 C- F$ @8 N3 P0 a; S: z1 K; z
  2. Video. z. o3 G, x" B( b# Y- P5 f2 K, K! K
  3. ID                                       : 1
    # E- f9 W) u; ?- k6 d( S7 S& d) K
  4. Format                                   : AVC# Q8 c% ]3 _+ Q- `: n( b
  5. Format/Info                              : Advanced Video Codec+ Z8 _% m& Y: k7 ~
  6. Format profile                           : [url=/cdn-cgi/l/email-protection][email protected][/url]6 ^7 s8 e( M) l5 k% h, o
  7. Format settings                          : CABAC / 9 Ref Frames* ^# h! x+ F2 b  I% w
  8. Format settings, CABAC                   : Yes* P9 z2 [! [& s. g( s
  9. Format settings, ReFrames                : 9 frames, ?3 T5 Q$ B- K! J+ D# h
  10. Codec ID                                 : V_MPEG4/ISO/AVC
    % a: q  k* R6 @% _( u- M/ ]0 A
  11. Duration                                 : 1 h 43 min
    3 ]4 t9 s" N1 t0 e1 m
  12. Bit rate                                 : 5 875 kb/s
    , T5 F0 k: Q0 b7 ?
  13. Width                                    : 1 280 pixels( {3 n* D, a6 R2 t4 @5 ^
  14. Height                                   : 720 pixels
      z2 H- [7 C+ m9 [: R8 z" n
  15. Display aspect ratio                     : 16:97 P+ S# U' w2 K$ H3 b* C; `4 Y  Q
  16. Frame rate mode                          : Constant
    8 F" f" i* v! u1 F) K" z
  17. Frame rate                               : 23.976 (24000/1001) FPS; s! F" D; x) W# O
  18. Color space                              : YUV" Z3 a$ Q% T8 B, p
  19. Chroma subsampling                       : 4:2:0& F% V  w# \- ]
  20. Bit depth                                : 8 bits
    / H: S# W& p' U" o
  21. Scan type                                : Progressive* D3 [4 p$ }0 Y; z/ @
  22. Bits/(Pixel*Frame)                       : 0.266
    8 A# q) M! z3 X2 m
  23. Stream size                              : 4.23 GiB (97%)
    3 t6 A8 E' G* Y3 h9 L! a& |( C* X1 M$ `
  24. Writing library                          : x264 core 157 r2935 545de2f+ H# g) b. c  q; k) o6 e' g' A
  25. Encoding settings                        : cabac=1 / ref=9 / deblock=1:-3:-3 / analyse=0x3:0x133 / me=umh / subme=9 / psy=1 / psy_rd=1.00:0.00 / mixed_ref=1 / me_range=24 / chroma_me=1 / trellis=1 / 8x8dct=1 / cqm=0 / deadzone=21,11 / fast_pskip=0 / chroma_qp_offset=-2 / threads=18 / lookahead_threads=3 / sliced_threads=0 / nr=0 / decimate=1 / interlaced=0 / bluray_compat=0 / constrained_intra=0 / bframes=8 / b_pyramid=2 / b_adapt=2 / b_bias=0 / direct=3 / weightb=1 / open_gop=0 / weightp=2 / keyint=250 / keyint_min=23 / scenecut=40 / intra_refresh=0 / rc_lookahead=60 / rc=2pass / mbtree=1 / bitrate=5875 / ratetol=1.0 / qcomp=0.60 / qpmin=0 / qpmax=69 / qpstep=4 / cplxblur=20.0 / qblur=0.5 / vbv_maxrate=62500 / vbv_bufsize=78125 / nal_hrd=none / filler=0 / ip_ratio=1.40 / aq=1:1.00
    0 P, [8 @7 A8 s# I! |7 G
  26. Default                                  : Yes8 Q) q$ W" F! c! _" F
  27. Forced                                   : No
    % C0 Q6 B- X, D& h6 a

  28. : j! D" l8 c' ~1 X5 p
  29. Audio
    0 ~: H' y# v: k5 u3 @2 A  J
  30. ID                                       : 2$ P) d7 x: V! Z& S
  31. Format                                   : AC-33 w# s; e8 J9 ^  A% ?( G/ G
  32. Format/Info                              : Audio Coding 35 Z! e- {) j" Z; t
  33. Commercial name                          : Dolby Digital; A: |5 y% p& q0 S( c# U
  34. Codec ID                                 : A_AC3
    0 a3 l- D+ _) `$ N+ n7 [
  35. Duration                                 : 1 h 43 min
    5 e! t1 u; b6 a  R: ^- R
  36. Bit rate mode                            : Constant
    - M. |0 G  k" S+ ^' t
  37. Bit rate                                 : 192 kb/s! ]7 b# @# l* F; u+ `8 |6 a
  38. Channel(s)                               : 2 channels' O1 _1 X* Q& r3 k9 ]7 \3 L
  39. Channel layout                           : L R
    ! s! h3 X$ p6 O, T
  40. Sampling rate                            : 48.0 kHz
    ' r) ^4 r4 y# z+ I1 ?$ }6 A5 `, i
  41. Frame rate                               : 31.250 FPS (1536 SPF)- e  S/ J5 _5 Y# U/ s% M
  42. Bit depth                                : 16 bits
    + V$ Y9 U& i. e2 P& [' {
  43. Compression mode                         : Lossy7 R% q& D7 b# |& t" B& n9 p6 d
  44. Stream size                              : 142 MiB (3%)
    1 V  j7 D8 `+ w
  45. Language                                 : English( {( v, v% u- O# e- ^4 r
  46. Service kind                             : Complete Main2 d9 t( R( Z; j7 _! v* t$ k7 @
  47. Default                                  : Yes. `9 i) c% K6 ~, u4 u
  48. Forced                                   : No4 _$ m( n7 Q: O6 a

  49. + R) ~: L# u+ u1 b5 H
  50. Menu
    7 h3 [& N: u: O) ~1 }- V
  51. 00:00:00.000                             : en:00:00:00.0006 |% y- [1 _3 |: D% `. b9 y: R, S
  52. 00:10:00.600                             : en:00:10:00.600  J+ j) |* a. c1 n
  53. 00:20:01.200                             : en:00:20:01.200' @5 [9 v# x4 T$ W1 r
  54. 00:30:01.800                             : en:00:30:01.800, q  E* q* i3 ~$ Q' D
  55. 00:40:02.400                             : en:00:40:02.400
    - a5 D' \) P" L- n
  56. 00:50:03.000                             : en:00:50:03.000
    # w$ u+ z' t! k; `) d
  57. 01:00:03.600                             : en:01:00:03.6008 `, D4 a$ S" d' X
  58. 01:10:04.200                             : en:01:10:04.200
    - p6 [  |- h" q$ w, }" b3 K) P1 N8 o
  59. 01:20:04.800                             : en:01:20:04.800: s: r3 M6 q& g/ K
  60. 01:30:05.400                             : en:01:30:05.400
    + b' O; A/ u( G, f
复制代码

0 V5 a0 q- t1 H$ {复制代码2 \9 o! c5 E$ v$ q1 x4 L
) O- e7 G+ n: @" ?4 t4 K
温柔的钩子 The.Tender.Hook.2008.720p.BluRay.x264-HD4U 4.37GB-3.jpg - y6 \# d4 B7 s; G

. d1 N' w* O& _) U9 s
) M# C- ~" N6 Q0 \8 \$ |( y' V/ ^4 S& I
( A$ P: q2 R/ I

4 q+ y. C9 }1 [4 w% K
回复

使用道具 举报

级别:普通观众 Lv.2

注册时间
2018-5-11
最后登录
2019-5-21
听众
4
收听
0
主题
0
蓝光币
13 枚
贡献
0 点
发表于 2018-12-7 15:42:32 | 显示全部楼层
时间密码时间密码
回复

使用道具 举报

级别:普通观众 Lv.2

注册时间
2018-12-7
最后登录
2018-12-19
听众
2
收听
0
主题
0
蓝光币
22 枚
贡献
0 点
QQ
发表于 2018-12-7 16:43:45 | 显示全部楼层
0 J9 ~) q7 I- P0 O3 N
其实我一直觉得楼主的品味不错!呵呵!中国高清电影网太棒了!
回复

使用道具 举报

*滑动验证:
懒得打字嘛,点击右侧快捷回复 【右侧内容,后台自定义】
您需要登录后才可以回帖 登录 | 立即注册

本版积分规则

QQ|Archiver|手机版|小黑屋| 中国高清网  |网站地图

GMT+8, 2019-5-27 01:57 , Processed in 0.160329 second(s), 47 queries .

Powered by HDchina X3.4

Copyright 2017-2019©HDchina.All right reserved

返回顶部 联系我们