你所知道的4K资源这里全部都有 4K电影 | 4K视频 | 4K壁纸 | 4K MV 怎么播放4K视频 | 4K电视演示片

教你玩转4K私人与家庭影院存储 NAS组装 | 黑群辉 家庭/影院Nas论坛

4K家庭影院信号源与视频设备知识 4K蓝光高清播放机 - 那个品牌好? 4K投影机论坛 | 4K电视机论坛

手把手教你搭建属于自己的家庭影院 4K家庭影院案例 | 家庭影院音频 4K家庭影院论坛

查看: 38|回复: 2

[剧情片] 温柔的钩子 The.Tender.Hook.2008.720p.BluRay.x264-HD4U 4.37GB

[复制链接]

级别:资源管理组

UID
1
注册时间
2017-10-20
最后登录
2018-12-14
听众
0
收听
0
主题
73005
蓝光币
104526 枚
贡献
142813 点
发表于 2018-12-6 21:34:09 | 显示全部楼层 |阅读模式

8 w8 Z) S( O' q$ F 温柔的钩子 The.Tender.Hook.2008.720p.BluRay.x264-HD4U 4.37GB-1.jpg
& Q' ?, H+ ]& v/ `! U 温柔的钩子 The.Tender.Hook.2008.720p.BluRay.x264-HD4U 4.37GB-2.jpg
9 M  m, R- q& |1 P* F2 F2 w5 c. y* k7 P" [$ s4 |
◎译  名 温柔的钩子
2 U7 l, \9 q6 F  j( z( j3 b◎片  名 The Tender Hook
0 p) V- Y, y0 C# |◎年  代 2008
! [6 m3 v# G% |. l◎产  地 澳大利亚6 j& D) X* s5 E) c
◎类  别 剧情 / 恋爱 / 悬疑 / 犯罪4 Z5 g- f% _6 D- a" w6 ~
◎语  言 英语+ e( |% C! ^) O8 K7 o2 y% A; Q0 j
◎上映日期 2008-09-18- M7 k5 {" {) _( X
◎IMDb评分 5.6/10 from 415 users: ~' c( `% _  U2 m! {2 X5 N
◎IMDb链接 http://www.imdb.com/title/tt0452692& X0 N. L2 i0 e) Q
◎豆瓣评分 6.3/10 from 81 users
& l+ R6 y( l, ]- J◎豆瓣链接 https://movie.douban.com/subject/2137144/& O5 I2 ]- w* ], C8 C/ x# i- |
◎片  长 100分钟0 y. d/ @: r) X1 I5 F
◎导  演 Jonathan Ogilvie5 u6 z; t8 s1 v; j2 b: @
◎主  演 Rose Byrne
0 `! @4 P; I/ i7 _5 m$ @, c      Hugo Weaving! M" l/ K! p' _2 b4 W

' i! F1 L: f- N" M% a% M' c4 n) h; O
◎标  签 我看过的电影 | 澳大利亚 | 我看过的英语电影 | 澳大利亚电影 | HugoWeaving | 我看过的可骇电影 | 可骇电影 | 20080 W4 K* E% o. L" Z2 K8 P0 V3 d
9 A  Y3 l$ K- K3 e5 B
◎简  介  6 c, e6 Q/ E+ {+ R. J

/ I% ~7 T1 C# B  悉尼上世纪20年月一个叫IRIS的女子与一个拳击俱乐部老板和年轻拳击手之间的三角爱情
9 O/ v% p5 k  K
/ S1 |. n8 g; J+ {$ }7 i* d$ K
  1. : |# u4 s+ }" ^1 ]5 \+ |
  2. Video
    , [0 N3 a( k! k1 L- Y2 _
  3. ID                                       : 13 K7 G- w! m( I$ B/ K: y
  4. Format                                   : AVC/ G: R  D# H$ f: }: c1 N
  5. Format/Info                              : Advanced Video Codec
    ! p* T& [4 }# ]3 K
  6. Format profile                           : [url=/cdn-cgi/l/email-protection][email protected][/url]
    5 w  y( E- U  j# k2 G
  7. Format settings                          : CABAC / 9 Ref Frames
    & L) n( J3 _# ^  Q; G9 a5 O
  8. Format settings, CABAC                   : Yes+ z' x1 _- E! W: S
  9. Format settings, ReFrames                : 9 frames
    8 H' \* B7 S  ?7 `# Q& z2 x
  10. Codec ID                                 : V_MPEG4/ISO/AVC  z! B5 T0 T3 B& H) h8 b4 Y
  11. Duration                                 : 1 h 43 min  Q  u* o2 P  g8 @) S: ^! p2 ?$ t
  12. Bit rate                                 : 5 875 kb/s- v6 z: }2 s2 e7 Q  b
  13. Width                                    : 1 280 pixels
      T4 c2 v- k8 D/ k+ @; ~6 `2 N
  14. Height                                   : 720 pixels
    8 E: ^0 w0 Z- D# e2 y+ C& g  T
  15. Display aspect ratio                     : 16:9
    7 ^  z3 x8 M- v& q) C7 T; }
  16. Frame rate mode                          : Constant
    7 ~8 ]; L7 r( L
  17. Frame rate                               : 23.976 (24000/1001) FPS" O" c& C+ k& H: P, C- t
  18. Color space                              : YUV
    ' x, f$ G7 }, G& I9 Q
  19. Chroma subsampling                       : 4:2:0
    : w9 A% {7 R! X
  20. Bit depth                                : 8 bits
    & W7 E  Q7 X" w) H2 P: ?  i
  21. Scan type                                : Progressive
      z. J, o: D6 u
  22. Bits/(Pixel*Frame)                       : 0.266( i/ x* Y$ C6 H8 l) ]4 {
  23. Stream size                              : 4.23 GiB (97%)
    - A; u8 h8 u1 A- I
  24. Writing library                          : x264 core 157 r2935 545de2f6 |/ ?  o. G5 g2 |6 {% p" x- a
  25. Encoding settings                        : cabac=1 / ref=9 / deblock=1:-3:-3 / analyse=0x3:0x133 / me=umh / subme=9 / psy=1 / psy_rd=1.00:0.00 / mixed_ref=1 / me_range=24 / chroma_me=1 / trellis=1 / 8x8dct=1 / cqm=0 / deadzone=21,11 / fast_pskip=0 / chroma_qp_offset=-2 / threads=18 / lookahead_threads=3 / sliced_threads=0 / nr=0 / decimate=1 / interlaced=0 / bluray_compat=0 / constrained_intra=0 / bframes=8 / b_pyramid=2 / b_adapt=2 / b_bias=0 / direct=3 / weightb=1 / open_gop=0 / weightp=2 / keyint=250 / keyint_min=23 / scenecut=40 / intra_refresh=0 / rc_lookahead=60 / rc=2pass / mbtree=1 / bitrate=5875 / ratetol=1.0 / qcomp=0.60 / qpmin=0 / qpmax=69 / qpstep=4 / cplxblur=20.0 / qblur=0.5 / vbv_maxrate=62500 / vbv_bufsize=78125 / nal_hrd=none / filler=0 / ip_ratio=1.40 / aq=1:1.00! L7 F5 U- O# S# t0 I) x5 v" }
  26. Default                                  : Yes
    % ^4 F" I3 p6 l: y# J
  27. Forced                                   : No+ Q8 G! c& S* q6 ?. x* u) H

  28. 6 d  t4 M0 s  N  ^
  29. Audio
    + c. v0 _; J$ R
  30. ID                                       : 2* {$ {# `* C  e
  31. Format                                   : AC-3
    0 D* `* t6 Q5 Y, y% S; o- B
  32. Format/Info                              : Audio Coding 3% T5 _9 g( l1 v
  33. Commercial name                          : Dolby Digital* G4 M0 v4 v: [) @
  34. Codec ID                                 : A_AC3. j9 v2 y% `! X; l! }% q# W
  35. Duration                                 : 1 h 43 min
    * X( W- v7 [: b; G% R
  36. Bit rate mode                            : Constant6 k  D; {  L" B" K  C$ }
  37. Bit rate                                 : 192 kb/s& u5 t& o5 ^; L9 M, g/ x; X
  38. Channel(s)                               : 2 channels- k4 J) I: [( o: G$ v7 M
  39. Channel layout                           : L R/ q  @# N8 I* O7 j
  40. Sampling rate                            : 48.0 kHz5 d, i  K0 i, ?# k
  41. Frame rate                               : 31.250 FPS (1536 SPF)
    % U3 P$ c8 i( H' v  Q4 d& \
  42. Bit depth                                : 16 bits
    ! L* X% I4 l) c/ f
  43. Compression mode                         : Lossy3 d( F) R5 X! M$ z, L
  44. Stream size                              : 142 MiB (3%)9 `0 s2 F! ?! J  y
  45. Language                                 : English8 c- |( _* Y( N  b9 g$ Z
  46. Service kind                             : Complete Main) J9 _+ S; w2 E& @  \
  47. Default                                  : Yes/ y5 D+ B% Q/ Y: c- q
  48. Forced                                   : No
    - i  M# P4 u$ O0 o# `  a, f
  49. 9 L/ D' D  U$ V5 Q* O! v5 o' b
  50. Menu
    5 I2 ^; ^; T4 F2 E7 ]9 @
  51. 00:00:00.000                             : en:00:00:00.000
    / e: w- ?8 {( r0 D' \
  52. 00:10:00.600                             : en:00:10:00.600
    & b. h, T7 e' \5 h
  53. 00:20:01.200                             : en:00:20:01.200
    5 H; [; }7 f0 s& G- W# e
  54. 00:30:01.800                             : en:00:30:01.800
    . ~( X) F  I$ ^) S. X/ r6 r
  55. 00:40:02.400                             : en:00:40:02.400
    7 L0 S8 u+ V  |* i3 [: i
  56. 00:50:03.000                             : en:00:50:03.000% b' e' L4 Z+ S8 |' M2 I
  57. 01:00:03.600                             : en:01:00:03.600: t- H. T; r2 y7 b
  58. 01:10:04.200                             : en:01:10:04.200- i$ V8 I1 Z8 r
  59. 01:20:04.800                             : en:01:20:04.800
    8 u: g6 W$ b8 V) j! a4 M8 w
  60. 01:30:05.400                             : en:01:30:05.400
    8 ]" K+ k2 ^- n4 ^. b1 `
复制代码
" z& e) N1 b! l
复制代码5 i# n! \4 g: _9 H. c6 w1 S2 l: d
4 u6 y1 Y! P- a  e4 O% z
温柔的钩子 The.Tender.Hook.2008.720p.BluRay.x264-HD4U 4.37GB-3.jpg 1 r0 Q5 Q4 I! W% i5 Q
8 h* d) z# G. d7 z, A! L; @3 J& L
, W6 ]  M2 a* h+ }, m. H" O

& j! V& D+ b& \. n, x: G1 r! m
# H" z+ P9 @4 q9 a  U, E  A& f# e8 h2 y, ?0 {
回复

使用道具 举报

级别:初级观众 Lv.1

UID
3487
注册时间
2018-5-11
最后登录
2018-12-12
听众
1
收听
0
主题
0
蓝光币
9 枚
贡献
0 点
发表于 7 天前 | 显示全部楼层
时间密码时间密码
回复

使用道具 举报

级别:普通观众 Lv.2

UID
11632
注册时间
2018-12-7
最后登录
2018-12-12
听众
0
收听
0
主题
0
蓝光币
21 枚
贡献
0 点
QQ
发表于 7 天前 | 显示全部楼层
. {, j& m& ?8 w7 e$ A+ K: k7 \
其实我一直觉得楼主的品味不错!呵呵!中国高清电影网太棒了!
回复

使用道具 举报

懒得打字嘛,点击右侧快捷回复 【右侧内容,后台自定义】
您需要登录后才可以回帖 登录 | 立即注册

本版积分规则

QQ|Archiver|手机版|小黑屋|中国高清网 |网站地图

GMT+8, 2018-12-14 16:38 , Processed in 0.126587 second(s), 42 queries .

Powered by HDchina X3.4

Copyright 2017-2018©HDchina.All right reserved

返回顶部 联系我们