你所知道的4K资源这里全部都有 4K电影 | 4K视频 | 4K壁纸 | 4K MV 怎么播放4K视频 | 4K电视演示片

教你玩转4K私人与家庭影院存储 NAS组装 | 黑群辉 家庭/影院Nas论坛

4K家庭影院信号源与视频设备知识 4K蓝光高清播放机 - 那个品牌好? 4K投影机论坛 | 4K电视机论坛

手把手教你搭建属于自己的家庭影院 4K家庭影院案例 | 家庭影院音频 4K家庭影院论坛

查看: 80|回复: 2

[剧情片] 温柔的钩子 The.Tender.Hook.2008.720p.BluRay.x264-HD4U 4.37GB

[复制链接]

 成长值: 420

级别:资源管理组

注册时间
2017-10-20
最后登录
2019-2-21
听众
0
收听
0
主题
74871
蓝光币
125848 枚
贡献
144680 点
发表于 2018-12-6 21:34:09 | 显示全部楼层 |阅读模式
  M+ F7 H5 _$ E! p
温柔的钩子 The.Tender.Hook.2008.720p.BluRay.x264-HD4U 4.37GB-1.jpg 2 r- Q4 w, F1 c1 ?& Y' a
温柔的钩子 The.Tender.Hook.2008.720p.BluRay.x264-HD4U 4.37GB-2.jpg - m8 O, U- Q- \6 Q

. G$ P( [* z% V1 g! D◎译  名 温柔的钩子
# v/ r; \0 \8 Z; c& z◎片  名 The Tender Hook3 N( r3 [4 c+ n" ]7 n8 ^
◎年  代 2008
# J) d. Z& l6 b5 U+ C% [◎产  地 澳大利亚
1 B7 B3 g* _$ I: k) d" f◎类  别 剧情 / 恋爱 / 悬疑 / 犯罪
3 X, e0 X$ g8 n% d◎语  言 英语
$ w- v+ }4 I1 f+ ^9 ~, G2 k◎上映日期 2008-09-18
, _! {9 ?5 j! {7 A◎IMDb评分 5.6/10 from 415 users
# w0 s- Q: ^% o  K* B  B◎IMDb链接 http://www.imdb.com/title/tt04526928 K# W& M7 j, k
◎豆瓣评分 6.3/10 from 81 users5 V+ q! p! Y# g# j: r9 }
◎豆瓣链接 https://movie.douban.com/subject/2137144/3 V' T2 f/ X( ^) i; e
◎片  长 100分钟
8 T* H3 x7 P" i; c. b( L- Z# |4 Y◎导  演 Jonathan Ogilvie) {2 k6 T+ u. F9 o4 S5 `0 \
◎主  演 Rose Byrne7 y( w$ r: C2 d+ u: u# m2 e
      Hugo Weaving4 L  a# K& S8 Q4 d6 a, d0 L
7 k  n# q4 E) X) U0 H6 ], |

5 a8 K  U1 U& q$ A9 F2 b& `: [! p◎标  签 我看过的电影 | 澳大利亚 | 我看过的英语电影 | 澳大利亚电影 | HugoWeaving | 我看过的可骇电影 | 可骇电影 | 2008$ |- @: I$ p1 L+ v7 G

; W( E" s/ |  h◎简  介  
) n& n8 l3 R- r7 s, \$ [* _3 h2 h" O) c7 ~
  悉尼上世纪20年月一个叫IRIS的女子与一个拳击俱乐部老板和年轻拳击手之间的三角爱情* f) I$ B( D5 {" s8 [% u

/ _6 W$ Z+ a* R$ n& @
  1. % Y( d' H. J8 q6 A8 F, v. S
  2. Video
    6 c/ v+ h; B& Q* k. e! u
  3. ID                                       : 1
    ; T5 K. k: ?9 S2 t1 t1 y! y
  4. Format                                   : AVC
    ' X  Y8 ]* h$ ^0 v' C% E# R( z  v9 D- l2 Y
  5. Format/Info                              : Advanced Video Codec
    9 W+ |6 k; A* A% F% s: z: `& Z+ `
  6. Format profile                           : [url=/cdn-cgi/l/email-protection][email protected][/url]
    $ S+ Q# f. A* M4 {
  7. Format settings                          : CABAC / 9 Ref Frames& F8 z/ h1 M8 p3 i% }
  8. Format settings, CABAC                   : Yes
    # s3 r+ I! J; ^: p/ G
  9. Format settings, ReFrames                : 9 frames" O, @+ f! `% `0 \& u3 n
  10. Codec ID                                 : V_MPEG4/ISO/AVC8 G$ I& V6 x5 S: z' p+ L
  11. Duration                                 : 1 h 43 min
    ( M1 t; J$ H: a& _% i- B5 X) n3 N: D
  12. Bit rate                                 : 5 875 kb/s
    . I* L# i. S+ I; w/ \
  13. Width                                    : 1 280 pixels
    0 s# M1 S/ t$ t5 `) n/ l+ _  \% `+ J
  14. Height                                   : 720 pixels9 l% i/ z, h0 Z$ |- K2 M
  15. Display aspect ratio                     : 16:9
    - M2 M; g! u& [  U' b, K% s7 r
  16. Frame rate mode                          : Constant% O9 Y1 M/ U* L; I
  17. Frame rate                               : 23.976 (24000/1001) FPS0 e" f, Q  @' |) u0 R& b2 D
  18. Color space                              : YUV
    ( A0 G1 K& r7 ?) `
  19. Chroma subsampling                       : 4:2:0
    8 n: V- E  \2 F5 @; r1 v
  20. Bit depth                                : 8 bits
    : O) {" ?: f; a: Q4 ]5 s" o
  21. Scan type                                : Progressive
    1 P7 h- n) G# }; ]/ m* q5 _# i
  22. Bits/(Pixel*Frame)                       : 0.266
    * B8 \# \+ ~4 G) U& W" k/ S
  23. Stream size                              : 4.23 GiB (97%)3 s! A5 t/ D9 k& S4 G- e7 ~( p
  24. Writing library                          : x264 core 157 r2935 545de2f! h6 ?- M/ e( j2 v& Q* ~" P% g/ a
  25. Encoding settings                        : cabac=1 / ref=9 / deblock=1:-3:-3 / analyse=0x3:0x133 / me=umh / subme=9 / psy=1 / psy_rd=1.00:0.00 / mixed_ref=1 / me_range=24 / chroma_me=1 / trellis=1 / 8x8dct=1 / cqm=0 / deadzone=21,11 / fast_pskip=0 / chroma_qp_offset=-2 / threads=18 / lookahead_threads=3 / sliced_threads=0 / nr=0 / decimate=1 / interlaced=0 / bluray_compat=0 / constrained_intra=0 / bframes=8 / b_pyramid=2 / b_adapt=2 / b_bias=0 / direct=3 / weightb=1 / open_gop=0 / weightp=2 / keyint=250 / keyint_min=23 / scenecut=40 / intra_refresh=0 / rc_lookahead=60 / rc=2pass / mbtree=1 / bitrate=5875 / ratetol=1.0 / qcomp=0.60 / qpmin=0 / qpmax=69 / qpstep=4 / cplxblur=20.0 / qblur=0.5 / vbv_maxrate=62500 / vbv_bufsize=78125 / nal_hrd=none / filler=0 / ip_ratio=1.40 / aq=1:1.005 M* z6 ^2 O/ v: E
  26. Default                                  : Yes+ `! ?' |) ^0 H8 Q4 j' T
  27. Forced                                   : No9 u# D3 E6 N: ^* e3 m$ u7 p9 D

  28. , Z6 l7 j5 k) j7 o4 b6 e0 L0 }
  29. Audio- T8 E8 n% x+ U* c& \
  30. ID                                       : 2: z& ~/ e- H; Q
  31. Format                                   : AC-39 L2 X7 {% W' Y. D
  32. Format/Info                              : Audio Coding 3
    4 {" x9 v1 k4 R7 j: P% t
  33. Commercial name                          : Dolby Digital
    1 U2 T: g! S6 `
  34. Codec ID                                 : A_AC3
    $ {& _! C" Y9 j# u4 h( y9 }( S
  35. Duration                                 : 1 h 43 min- L% Y7 Q' F% r1 q
  36. Bit rate mode                            : Constant
    + g4 q/ E* R) M1 ]5 ?5 I9 Z
  37. Bit rate                                 : 192 kb/s. E1 W  U" p. F! I& l
  38. Channel(s)                               : 2 channels4 e4 s0 ?0 G/ P$ ]4 A) @# R3 Z
  39. Channel layout                           : L R
    6 _2 R9 ]" V8 H
  40. Sampling rate                            : 48.0 kHz9 D, v5 w! k# m) T
  41. Frame rate                               : 31.250 FPS (1536 SPF): D9 R6 n; i! }& j: ~
  42. Bit depth                                : 16 bits
    2 c7 t# P- @: s$ [+ P5 D+ ?9 l1 o
  43. Compression mode                         : Lossy- ~; w( S. U+ P
  44. Stream size                              : 142 MiB (3%)
    0 {; w' H; `- T* X. I
  45. Language                                 : English$ x' F' O4 r# a
  46. Service kind                             : Complete Main
    5 L& d' t- M3 c& Z5 s/ D3 K
  47. Default                                  : Yes6 C5 N9 Z+ _7 W/ q8 H+ O) w9 X3 K
  48. Forced                                   : No
    % V! C# \9 ]5 P# j9 a* W2 R& F

  49. 7 E$ S7 k) Y9 G9 ~' j  t
  50. Menu
    $ e& i9 @; \) _3 r0 ]
  51. 00:00:00.000                             : en:00:00:00.000
    * l0 E* ^7 S  J& s; @! D, t
  52. 00:10:00.600                             : en:00:10:00.600
    2 d: s. o6 {  }8 ?1 v3 ]3 g
  53. 00:20:01.200                             : en:00:20:01.2004 r- l- m: ^5 \$ s0 W  K5 r9 k- i
  54. 00:30:01.800                             : en:00:30:01.800
    % K( J; v: F, [; m3 E7 I7 q9 g2 }
  55. 00:40:02.400                             : en:00:40:02.4004 c7 X0 K" R  P) g8 G
  56. 00:50:03.000                             : en:00:50:03.000, r2 }8 ^( `, M2 J7 x  ]" o/ z
  57. 01:00:03.600                             : en:01:00:03.600& N% S4 K' J+ s1 u
  58. 01:10:04.200                             : en:01:10:04.200* v( H! w8 A2 C# n! M2 u/ u
  59. 01:20:04.800                             : en:01:20:04.800
    3 ^1 Z! }/ U0 k" z; z' X
  60. 01:30:05.400                             : en:01:30:05.400' `7 F8 h- N3 R, t3 \
复制代码

# s8 B( _$ N3 s4 A; E- |( F复制代码
' y. }8 T! y( A* \, }; E3 S% q' V& p
温柔的钩子 The.Tender.Hook.2008.720p.BluRay.x264-HD4U 4.37GB-3.jpg - |5 x8 a% t1 C. U. c7 G5 W6 w, e

+ i. m0 Y4 y/ v1 n  J4 U* w) M* n6 ]4 k; B1 v. g: F. {, N
2 h' D' t: r6 c+ |1 F

' v/ O8 Q: S4 l) z. |: H( d* F# [* H+ t% e" x( j
回复

使用道具 举报

级别:初级观众 Lv.1

注册时间
2018-5-11
最后登录
2018-12-12
听众
1
收听
0
主题
0
蓝光币
9 枚
贡献
0 点
发表于 2018-12-7 15:42:32 | 显示全部楼层
时间密码时间密码
回复

使用道具 举报

级别:普通观众 Lv.2

注册时间
2018-12-7
最后登录
2018-12-19
听众
0
收听
0
主题
0
蓝光币
22 枚
贡献
0 点
QQ
发表于 2018-12-7 16:43:45 | 显示全部楼层
5 B" o, F8 ]& F+ ?) F
其实我一直觉得楼主的品味不错!呵呵!中国高清电影网太棒了!
回复

使用道具 举报

懒得打字嘛,点击右侧快捷回复 【右侧内容,后台自定义】
您需要登录后才可以回帖 登录 | 立即注册

本版积分规则

QQ|Archiver|手机版|小黑屋|中国高清网 |网站地图

GMT+8, 2019-2-21 16:19 , Processed in 0.141842 second(s), 41 queries .

Powered by HDchina X3.4

Copyright 2017-2018©HDchina.All right reserved

返回顶部 联系我们