你所知道的4K资源这里全部都有 4K电影 | 4K视频 | 4K壁纸 | 4K MV 怎么播放4K视频 | 4K电视演示片

教你玩转4K私人与家庭影院存储 NAS组装 | 黑群辉 家庭/影院Nas论坛

4K家庭影院信号源与视频设备知识 4K蓝光高清播放机 - 那个品牌好? 4K投影机论坛 | 4K电视机论坛

手把手教你搭建属于自己的家庭影院 4K家庭影院案例 | 家庭影院音频 4K家庭影院论坛

查看: 208|回复: 12

[科幻片] 毒液:致命守护者/毒液 Venom.2018.1080p.BluRay.x264.DTS-HD.MA.5.1-HDChina 12.43GB

[复制链接]

级别:资源管理组

UID
1
注册时间
2017-10-20
最后登录
2018-12-14
听众
0
收听
0
主题
73005
蓝光币
104512 枚
贡献
142813 点
发表于 2018-12-6 20:49:46 | 显示全部楼层 |阅读模式

毒液:致命保护者/毒液 Venom.2018.1080p.BluRay.x264.DTS-HD.MA.5.1-HDChina 12.43GB-1.jpg
毒液:致命保护者/毒液 Venom.2018.1080p.BluRay.x264.DTS-HD.MA.5.1-HDChina 12.43GB-2.jpg

◎译  名 毒液:致命保护者 / 毒液 / 毒魔(港) / 猛毒(台)
◎片  名 Venom
◎年  代 2018
◎产  地 美国 / 中国大陆
◎类  别 行动 / 科幻 / 惊悚
◎语  言 英语 / 汉语普通话
◎上映日期 2018-10-05(美国) / 2018-11-09(中国大陆)
◎IMDb评分 6.9/10 from 149248 users
◎IMDb链接 http://www.imdb.com/title/tt1270797
◎豆瓣评分 7.3/10 from 291683 users
◎豆瓣链接 https://movie.douban.com/subject/3168101/
◎片  长 112分钟
◎导  演 鲁本·弗雷斯彻 Ruben Fleischer
◎编  剧 杰夫·皮克纳 Jeff Pinkner / 斯科特·罗森伯格 Scott Rosenberg / 凯莉·马塞尔 Kelly Marcel / 托德·麦克法兰 Todd McFarlane / 戴维·麦克法兰 David Michelinie
◎主  演 汤姆·哈迪 Tom Hardy
      米歇尔·威廉姆斯 Michelle Williams
      里兹·阿迈德 Riz Ahmed
      斯科特·黑兹 Scott Haze
      瑞德·斯科特 Reid Scott
      珍妮·斯蕾特 Jenny Slate
      梅罗拉·沃特斯 Melora Walters
      伍迪·哈里森 Woody Harrelson
      Peggy Lu
      Malcolm C. Murray
      索佩·阿卢科 Sope Aluko
      韦恩·佩雷 Wayne Pére
      米歇尔·李 Michelle Lee
      库尔特·岳 Kurt Yue
      克里斯·奥哈拉 Chris O'Hara
      埃米里奥·瑞弗拉 Emilio Rivera
      阿里亚当娜·约瑟夫 Ariadne Joseph
      袁之正 Roger Yuan
      朴云龙 Woon Young Park
      麦克·勃兰特 Mac Brandt
      尼克·图恩 Nick Thune
      山姆·麦地那 Sam Medina
      迪塞尔·马德金斯 Diesel Madkins
      简·麦克尼尔 Jane McNeill
      维克托·麦凯 Victor McCay
      马丁·巴特斯·布拉德福德 Martin Bats Bradford
      布兰顿·莫拉莱斯 Brandon Morales
      马修·康威尔 Matthew Cornwell
      斯坦·李 Stan Lee
      韦德·威廉姆斯 Wade Williams
      约瑟夫·阿梅 Joseph Amey
      威廉·W·巴伯 William W. Barbour
      玛塞拉·布拉吉奥 Marcella Bragio
      卡特·伯奇 Carter Burch
      克里斯蒂安·康佛瑞 Christian Convery
      詹姆斯·富尔特斯 James Fuertes
      丹妮拉·加斯基 Daniela Gaskie
      约翰·盖蒂尔 John Gettier
      艾米丽塔·T·冈萨雷斯 Emelita T. Gonzalez
      杰克·汉森 Jake Hanson
      安东尼·B·哈里斯 Anthony B. Harris
      卡茜·亨德利 Cassie Hendry
      罗恩·彼得·琼斯 Ron Cephas Jones
      霍梅洛·洛佩兹 Homero Lopez
      万恩·姆约维奇 Vaughn Myovich


◎标  签 漫威 | 科幻 | 超级豪杰 | 美国 | 2018 | 行动 | 搞笑 | 漫画改编

◎简  介  

  艾迪(汤姆·哈迪 Tom Hardy 饰)是一位深受观众爱好的消息记者,和女友安妮(米歇尔·威廉姆斯 Michelle Williams 饰)相恋多年,相互之间豪情非常要好。安妮是一位律师,接手了生命基金会的案件,在女友的邮箱里,艾迪发现了基金会老板德雷克(里兹·阿迈德 Riz Ahmed 饰)不为人知的奥秘。为此,艾迪不但丢了工作,女友也离他而去。
以后,生命基金会的朵拉博士(珍妮·斯蕾特 Jenny Slate 饰)找到了艾迪,希望艾迪可以帮助她阻止德雷克疯狂的罪行。在生命基金会的尝试室里,艾迪发现了德雷克停止人体尝试的证据,而且在误打误撞当中被外星生命体毒液附身。回抵家后,艾迪和毒液之间构成了共生关系,他们要应对的是德雷克派出的一波又一波杀手。


  1. Video
  2. ID                                       : 1
  3. Format                                   : AVC
  4. Format/Info                              : Advanced Video Codec
  5. Format profile                           : [url=/cdn-cgi/l/email-protection][email protected][/url]
  6. Format settings                          : CABAC / 5 Ref Frames
  7. Format settings, CABAC                   : Yes
  8. Format settings, ReFrames                : 5 frames
  9. Codec ID                                 : V_MPEG4/ISO/AVC
  10. Duration                                 : 1 h 52 min
  11. Bit rate                                 : 13.5 Mb/s
  12. Width                                    : 1 920 pixels
  13. Height                                   : 800 pixels
  14. Display aspect ratio                     : 2.40:1
  15. Frame rate mode                          : Constant
  16. Frame rate                               : 23.976 (24000/1001) FPS
  17. Color space                              : YUV
  18. Chroma subsampling                       : 4:2:0
  19. Bit depth                                : 8 bits
  20. Scan type                                : Progressive
  21. Bits/(Pixel*Frame)                       : 0.367
  22. Stream size                              : 10.6 GiB (85%)
  23. Writing library                          : x264 core 148 r2665kMod a01e339
  24. Encoding settings                        : cabac=1 / ref=5 / deblock=1:-3:-3 / analyse=0x3:0x133 / me=umh / subme=11 / psy=1 / fade_compensate=0.00 / psy_rd=0.85:0.00 / mixed_ref=1 / me_range=48 / chroma_me=1 / trellis=2 / 8x8dct=1 / cqm=0 / deadzone=21,11 / fast_pskip=0 / chroma_qp_offset=-2 / threads=24 / lookahead_threads=4 / sliced_threads=0 / nr=0 / decimate=0 / interlaced=0 / bluray_compat=0 / constrained_intra=0 / fgo=0 / bframes=8 / b_pyramid=2 / b_adapt=2 / b_bias=0 / direct=3 / weightb=1 / open_gop=0 / weightp=2 / keyint=240 / keyint_min=24 / scenecut=40 / intra_refresh=0 / rc=2pass / mbtree=0 / bitrate=13500 / ratetol=1.0 / qcomp=0.70 / qpmin=0 / qpmax=69 / qpstep=4 / cplxblur=20.0 / qblur=0.5 / ip_ratio=1.20 / pb_ratio=1.20 / aq=3:0.80
  25. Default                                  : Yes
  26. Forced                                   : No

  27. Audio
  28. ID                                       : 2
  29. Format                                   : DTS XLL
  30. Format/Info                              : Digital Theater Systems
  31. Commercial name                          : DTS-HD Master Audio
  32. Codec ID                                 : A_DTS
  33. Duration                                 : 1 h 52 min
  34. Bit rate mode                            : Variable
  35. Bit rate                                 : 2 322 kb/s
  36. Channel(s)                               : 6 channels
  37. Channel layout                           : C L R Ls Rs LFE
  38. Sampling rate                            : 48.0 kHz
  39. Frame rate                               : 93.750 FPS (512 SPF)
  40. Bit depth                                : 16 bits
  41. Compression mode                         : Lossless
  42. Stream size                              : 1.82 GiB (15%)
  43. Language                                 : English
  44. Default                                  : Yes
  45. Forced                                   : No

  46. Text #1
  47. ID                                       : 3
  48. Format                                   : UTF-8
  49. Codec ID                                 : S_TEXT/UTF8
  50. Codec ID/Info                            : UTF-8 Plain Text
  51. Duration                                 : 1 h 49 min
  52. Bit rate                                 : 57 b/s
  53. Count of elements                        : 1474
  54. Stream size                              : 45.7 KiB (0%)
  55. Title                                    : English-SRT
  56. Language                                 : English
  57. Default                                  : Yes
  58. Forced                                   : No

  59. Text #2
  60. ID                                       : 4
  61. Format                                   : UTF-8
  62. Codec ID                                 : S_TEXT/UTF8
  63. Codec ID/Info                            : UTF-8 Plain Text
  64. Duration                                 : 1 h 49 min
  65. Bit rate                                 : 68 b/s
  66. Count of elements                        : 1828
  67. Stream size                              : 55.2 KiB (0%)
  68. Title                                    : English-SDH-SRT
  69. Language                                 : English
  70. Default                                  : No
  71. Forced                                   : No

  72. Text #3
  73. ID                                       : 5
  74. Format                                   : PGS
  75. Muxing mode                              : zlib
  76. Codec ID                                 : S_HDMV/PGS
  77. Codec ID/Info                            : Picture based subtitle format used on BDs/HD-DVDs
  78. Duration                                 : 1 h 49 min
  79. Bit rate                                 : 32.7 kb/s
  80. Count of elements                        : 2707
  81. Stream size                              : 25.5 MiB (0%)
  82. Title                                    : English-PGS
  83. Language                                 : English
  84. Default                                  : No
  85. Forced                                   : No

  86. Text #4
  87. ID                                       : 6
  88. Format                                   : PGS
  89. Muxing mode                              : zlib
  90. Codec ID                                 : S_HDMV/PGS
  91. Codec ID/Info                            : Picture based subtitle format used on BDs/HD-DVDs
  92. Duration                                 : 1 h 49 min
  93. Bit rate                                 : 44.9 kb/s
  94. Count of elements                        : 3663
  95. Stream size                              : 35.1 MiB (0%)
  96. Title                                    : English-SDH-PGS
  97. Language                                 : English
  98. Default                                  : No
  99. Forced                                   : No

  100. Menu
  101. 00:00:00.000                             : en:00:00:00.000
  102. 00:04:43.200                             : en:00:04:43.200
  103. 00:10:58.074                             : en:00:10:58.074
  104. 00:17:34.929                             : en:00:17:34.929
  105. 00:24:05.486                             : en:00:24:05.486
  106. 00:32:18.812                             : en:00:32:18.812
  107. 00:40:07.447                             : en:00:40:07.447
  108. 00:46:51.976                             : en:00:46:51.976
  109. 00:53:26.203                             : en:00:53:26.203
  110. 01:00:57.070                             : en:01:00:57.070
  111. 01:04:01.796                             : en:01:04:01.796
  112. 01:08:36.446                             : en:01:08:36.446
  113. 01:11:12.852                             : en:01:11:12.852
  114. 01:14:15.743                             : en:01:14:15.743
  115. 01:21:18.749                             : en:01:21:18.749
  116. 01:27:15.021                             : en:01:27:15.021
复制代码

复制代码

毒液:致命保护者/毒液 Venom.2018.1080p.BluRay.x264.DTS-HD.MA.5.1-HDChina 12.43GB-3.png 毒液:致命保护者/毒液 Venom.2018.1080p.BluRay.x264.DTS-HD.MA.5.1-HDChina 12.43GB-4.png 毒液:致命保护者/毒液 Venom.2018.1080p.BluRay.x264.DTS-HD.MA.5.1-HDChina 12.43GB-5.png




本帖隐藏的下载地址需要VIP会员才可阅读,您需要升级才可阅读,点击这里升级VIP

回复

使用道具 举报

级别:普通观众 Lv.2

UID
9467
注册时间
2018-11-5
最后登录
2018-12-12
听众
1
收听
0
主题
0
蓝光币
39 枚
贡献
0 点
发表于 7 天前 | 显示全部楼层
感谢楼主分享精彩电影!
回复

使用道具 举报

级别:普通观众 Lv.2

UID
11421
注册时间
2018-12-4
最后登录
2018-12-14
听众
0
收听
0
主题
0
蓝光币
43 枚
贡献
0 点
发表于 7 天前 | 显示全部楼层
感谢楼主分享精彩电影!
回复

使用道具 举报

级别:荣升主角 Lv.5

UID
5394
注册时间
2018-7-22
最后登录
2018-12-14
听众
3
收听
0
主题
0
蓝光币
940 枚
贡献
0 点
发表于 7 天前 | 显示全部楼层
今年很是流行这个类型呢
回复

使用道具 举报

级别:普通观众 Lv.2

UID
4902
注册时间
2018-7-3
最后登录
2018-12-7
听众
2
收听
0
主题
0
蓝光币
8 枚
贡献
0 点
QQ
发表于 7 天前 | 显示全部楼层
谢谢分享
回复

使用道具 举报

级别:群众演员 Lv.3

UID
1753
注册时间
2018-2-27
最后登录
2018-12-14
听众
2
收听
0
主题
0
蓝光币
169 枚
贡献
0 点
发表于 7 天前 | 显示全部楼层
感谢楼主分享精彩电影
回复

使用道具 举报

级别:普通观众 Lv.2

UID
4852
注册时间
2018-6-30
最后登录
2018-12-14
听众
2
收听
0
主题
0
蓝光币
35 枚
贡献
0 点
发表于 7 天前 | 显示全部楼层
楼主发贴辛苦了,谢谢楼主分享!我觉得中国高清电影网是注册对了!
回复

使用道具 举报

级别:群众演员 Lv.3

UID
1753
注册时间
2018-2-27
最后登录
2018-12-14
听众
2
收听
0
主题
0
蓝光币
169 枚
贡献
0 点
发表于 7 天前 | 显示全部楼层
感谢楼主分享精彩电影
回复

使用道具 举报

级别:群众演员 Lv.3

UID
2133
注册时间
2018-3-11
最后登录
2018-12-11
听众
2
收听
0
主题
0
蓝光币
16 枚
贡献
0 点
发表于 7 天前 | 显示全部楼层
感谢楼主分享精彩电影
回复

使用道具 举报

 成长值: 205

级别:尊贵的会员

UID
11659
注册时间
2018-12-7
最后登录
2018-12-11
听众
0
收听
0
主题
0
蓝光币
11 枚
贡献
0 点
发表于 7 天前 | 显示全部楼层
期待已久!
回复

使用道具 举报

懒得打字嘛,点击右侧快捷回复 【右侧内容,后台自定义】
您需要登录后才可以回帖 登录 | 立即注册

本版积分规则

QQ|Archiver|手机版|小黑屋|中国高清网 |网站地图

GMT+8, 2018-12-14 15:45 , Processed in 0.160527 second(s), 42 queries .

Powered by HDchina X3.4

Copyright 2017-2018©HDchina.All right reserved

返回顶部 联系我们