你所知道的4K资源这里全部都有 4K电影 | 4K视频 | 4K壁纸 | 4K MV 怎么播放4K视频 | 4K电视演示片

教你玩转4K私人与家庭影院存储 NAS组装 | 黑群辉 家庭/影院Nas论坛

4K家庭影院信号源与视频设备知识 4K蓝光高清播放机 - 那个品牌好? 4K投影机论坛 | 4K电视机论坛

手把手教你搭建属于自己的家庭影院 4K家庭影院案例 | 家庭影院音频 4K家庭影院论坛

查看: 50|回复: 1

[剧情片] 非凡任务 Extraordinary.Mission.2017.1080p.BluRay.x264-SPRiNTER 8.75GB

[复制链接]

级别:资源管理组

UID
1
注册时间
2017-10-20
最后登录
2018-12-14
听众
0
收听
0
主题
73005
蓝光币
104516 枚
贡献
142813 点
发表于 2018-12-6 20:48:37 | 显示全部楼层 |阅读模式

非凡使命 Extraordinary.Mission.2017.1080p.BluRay.x264-SPRiNTER 8.75GB-1.jpg
非凡使命 Extraordinary.Mission.2017.1080p.BluRay.x264-SPRiNTER 8.75GB-2.jpg

◎译  名 Extraordinary Mission / 猎鹰
◎片  名 非凡使命
◎年  代 2017
◎产  地 中国大陆
◎类  别 剧情 / 行动 / 犯罪
◎语  言 汉语普通话
◎上映日期 2017-03-31(中国大陆)
◎IMDb评分 6.3/10 from 460 users
◎IMDb链接 http://www.imdb.com/title/tt6690310
◎豆瓣评分 6.3/10 from 51577 users
◎豆瓣链接 https://movie.douban.com/subject/26616690/
◎片  长 122分钟
◎导  演 麦兆辉 Alan Mak / 潘耀明 Anthony Pun
◎编  剧 庄文强 Felix Chong
◎主  演 黄轩 Xuan Huang
      段奕宏 Yihong Duan
      郎月婷 Yueting Lang
      祖峰 Feng Zu
      邢佳栋 Jiadong Xing
      王耀庆 David Wang
      王砚辉 Yanhui Wang
      丁勇岱 Yongdai Ding
      肖聪 Cong Xiao
      李晓川 Xiaochuan Li
      赵炳锐 Bingrui Zhao
      代乐乐 Lele Dai
      陶海 Hai Tao


◎标  签 缉毒 | 行动 | 警匪 | 犯罪 | 中国大陆 | 2017 | 卧底 | 毒品

◎简  介  

  林凯(黄轩 饰)是李开国(祖峰 饰)安插在贩毒团体的卧底,他慢慢渗透到“双鹰”贩毒团体后,发现幕背面子“老鹰”(段奕宏 饰)与八年前李开国作为卧底观察的贩毒团体有关,还软禁了那时李开国的下级,终极林凯与李开国奇妙配合摧毁了全部贩毒团体。

◎获奖情况  

  第4届豆瓣电影年度榜单(2017)
  4月最受关注电影(提名)




  1. Video
  2. ID                                       : 1
  3. Format                                   : AVC
  4. Format/Info                              : Advanced Video Codec
  5. Format profile                           : [url=/cdn-cgi/l/email-protection][email protected][/url]
  6. Format settings                          : CABAC / 5 Ref Frames
  7. Format settings, CABAC                   : Yes
  8. Format settings, ReFrames                : 5 frames
  9. Codec ID                                 : V_MPEG4/ISO/AVC
  10. Duration                                 : 2 h 1 min
  11. Bit rate                                 : 8 789 kb/s
  12. Width                                    : 1 920 pixels
  13. Height                                   : 808 pixels
  14. Display aspect ratio                     : 2.40:1
  15. Frame rate mode                          : Constant
  16. Frame rate                               : 23.976 (24000/1001) FPS
  17. Color space                              : YUV
  18. Chroma subsampling                       : 4:2:0
  19. Bit depth                                : 8 bits
  20. Scan type                                : Progressive
  21. Bits/(Pixel*Frame)                       : 0.236
  22. Stream size                              : 7.46 GiB (85%)
  23. Writing library                          : x264 core 157 r2935 545de2f
  24. Encoding settings                        : cabac=1 / ref=5 / deblock=1:-3:-3 / analyse=0x3:0x133 / me=umh / subme=8 / psy=1 / psy_rd=1.00:0.00 / mixed_ref=1 / me_range=16 / chroma_me=1 / trellis=1 / 8x8dct=1 / cqm=0 / deadzone=21,11 / fast_pskip=0 / chroma_qp_offset=-2 / threads=25 / lookahead_threads=4 / sliced_threads=0 / nr=0 / decimate=1 / interlaced=0 / bluray_compat=0 / constrained_intra=0 / bframes=3 / b_pyramid=2 / b_adapt=1 / b_bias=0 / direct=3 / weightb=1 / open_gop=0 / weightp=2 / keyint=250 / keyint_min=23 / scenecut=40 / intra_refresh=0 / rc_lookahead=50 / rc=2pass / mbtree=1 / bitrate=8789 / ratetol=1.0 / qcomp=0.60 / qpmin=0 / qpmax=69 / qpstep=4 / cplxblur=20.0 / qblur=0.5 / vbv_maxrate=62500 / vbv_bufsize=78125 / nal_hrd=none / filler=0 / ip_ratio=1.40 / aq=1:1.00
  25. Default                                  : Yes
  26. Forced                                   : No

  27. Audio
  28. ID                                       : 2
  29. Format                                   : DTS
  30. Format/Info                              : Digital Theater Systems
  31. Codec ID                                 : A_DTS
  32. Duration                                 : 2 h 1 min
  33. Bit rate mode                            : Constant
  34. Bit rate                                 : 1 509 kb/s
  35. Channel(s)                               : 6 channels
  36. Channel layout                           : C L R Ls Rs LFE
  37. Sampling rate                            : 48.0 kHz
  38. Frame rate                               : 93.750 FPS (512 SPF)
  39. Bit depth                                : 24 bits
  40. Compression mode                         : Lossy
  41. Stream size                              : 1.28 GiB (15%)
  42. Language                                 : Chinese
  43. Default                                  : Yes
  44. Forced                                   : No

  45. Text
  46. ID                                       : 3
  47. Format                                   : UTF-8
  48. Codec ID                                 : S_TEXT/UTF8
  49. Codec ID/Info                            : UTF-8 Plain Text
  50. Duration                                 : 1 h 54 min
  51. Bit rate                                 : 23 b/s
  52. Count of elements                        : 900
  53. Stream size                              : 20.1 KiB (0%)
  54. Language                                 : English
  55. Default                                  : Yes
  56. Forced                                   : No

  57. Menu
  58. 00:00:00.000                             : en:00:00:00.000
  59. 00:16:39.290                             : en:00:16:39.290
  60. 00:34:04.542                             : en:00:34:04.542
  61. 00:49:07.653                             : en:00:49:07.653
  62. 01:05:47.443                             : en:01:05:47.443
  63. 01:22:36.410                             : en:01:22:36.410
  64. 01:38:49.048                             : en:01:38:49.048
  65. 01:56:29.900                             : en:01:56:29.900
复制代码

复制代码

非凡使命 Extraordinary.Mission.2017.1080p.BluRay.x264-SPRiNTER 8.75GB-3.jpg




回复

使用道具 举报

级别:普通观众 Lv.2

UID
11421
注册时间
2018-12-4
最后登录
2018-12-14
听众
0
收听
0
主题
0
蓝光币
43 枚
贡献
0 点
发表于 7 天前 | 显示全部楼层
先谢楼主分享。
回复

使用道具 举报

懒得打字嘛,点击右侧快捷回复 【右侧内容,后台自定义】
您需要登录后才可以回帖 登录 | 立即注册

本版积分规则

QQ|Archiver|手机版|小黑屋|中国高清网 |网站地图

GMT+8, 2018-12-14 16:11 , Processed in 0.115418 second(s), 41 queries .

Powered by HDchina X3.4

Copyright 2017-2018©HDchina.All right reserved

返回顶部 联系我们