你所知道的4K资源这里全部都有 4K电影 | 4K视频 | 4K壁纸 | 4K MV 怎么播放4K视频 | 4K电视演示片

教你玩转4K私人与家庭影院存储 NAS组装 | 黑群辉 家庭/影院Nas论坛

4K家庭影院信号源与视频设备知识 4K蓝光高清播放机 - 那个品牌好? 4K投影机论坛 | 4K电视机论坛

手把手教你搭建属于自己的家庭影院 4K家庭影院案例 | 家庭影院音频 4K家庭影院论坛

查看: 44|回复: 2

[惊悚片] 爱丽丝谋杀仙境/杀人乐园 Alice.in.Murderland.2010.1080p.BluRay.x264-SPRiNTER 5.47GB

[复制链接]

级别:资源管理组

UID
1
注册时间
2017-10-20
最后登录
2018-12-14
听众
0
收听
0
主题
73005
蓝光币
104526 枚
贡献
142813 点
发表于 2018-12-6 20:47:36 | 显示全部楼层 |阅读模式

爱丽丝谋杀仙境/杀人乐园 Alice.in.Murderland.2010.1080p.BluRay.x264-SPRiNTER 5.47GB-1.jpg
爱丽丝谋杀仙境/杀人乐园 Alice.in.Murderland.2010.1080p.BluRay.x264-SPRiNTER 5.47GB-2.jpg

◎译  名 爱丽丝谋杀仙境 / 杀人乐园 / 杀人乐园的爱丽丝
◎片  名 Alice in Murderland
◎年  代 2010
◎产  地 美国
◎类  别 惊悚 / 可骇
◎语  言 英语
◎IMDb评分 1.9/10 from 821 users
◎IMDb链接 http://www.imdb.com/title/tt1753422
◎豆瓣评分 3.6/10 from 50 users
◎豆瓣链接 https://movie.douban.com/subject/5979656/
◎片  长 90分钟
◎导  演 Dennis Devine
◎主  演 Malerie Grady
      Marlene Mc'Cohen
      Kelly Kula
      Katie Locke O'Brien


◎标  签 美国电影 | 可骇 | 惊悚 | 美国 | 烂片 | 血腥 | 搞笑 | 暴力

◎简  介  

  爱丽丝生日那天和她的姐妹举行了一个主题派对。其中有一位没有被约请,但他却侵扰了这一切。


  1. Video
  2. ID                                       : 1
  3. Format                                   : AVC
  4. Format/Info                              : Advanced Video Codec
  5. Format profile                           : [url=/cdn-cgi/l/email-protection][email protected][/url]
  6. Format settings                          : CABAC / 4 Ref Frames
  7. Format settings, CABAC                   : Yes
  8. Format settings, ReFrames                : 4 frames
  9. Codec ID                                 : V_MPEG4/ISO/AVC
  10. Duration                                 : 1 h 26 min
  11. Bit rate                                 : 8 900 kb/s
  12. Width                                    : 1 920 pixels
  13. Height                                   : 1 080 pixels
  14. Display aspect ratio                     : 16:9
  15. Frame rate mode                          : Constant
  16. Frame rate                               : 23.976 (24000/1001) FPS
  17. Color space                              : YUV
  18. Chroma subsampling                       : 4:2:0
  19. Bit depth                                : 8 bits
  20. Scan type                                : Progressive
  21. Bits/(Pixel*Frame)                       : 0.179
  22. Stream size                              : 5.35 GiB (98%)
  23. Writing library                          : x264 core 157 r2932 303c484
  24. Encoding settings                        : cabac=1 / ref=4 / deblock=1:-3:-3 / analyse=0x3:0x133 / me=umh / subme=9 / psy=1 / psy_rd=1.00:0.00 / mixed_ref=1 / me_range=24 / chroma_me=1 / trellis=1 / 8x8dct=1 / cqm=0 / deadzone=21,11 / fast_pskip=0 / chroma_qp_offset=-2 / threads=24 / lookahead_threads=4 / sliced_threads=0 / nr=0 / decimate=1 / interlaced=0 / bluray_compat=0 / constrained_intra=0 / bframes=8 / b_pyramid=2 / b_adapt=2 / b_bias=0 / direct=3 / weightb=1 / open_gop=0 / weightp=2 / keyint=250 / keyint_min=23 / scenecut=40 / intra_refresh=0 / rc_lookahead=60 / rc=2pass / mbtree=1 / bitrate=8900 / ratetol=1.0 / qcomp=0.60 / qpmin=0 / qpmax=69 / qpstep=4 / cplxblur=20.0 / qblur=0.5 / vbv_maxrate=62500 / vbv_bufsize=78125 / nal_hrd=none / filler=0 / ip_ratio=1.40 / aq=1:1.00
  25. Default                                  : Yes
  26. Forced                                   : No

  27. Audio
  28. ID                                       : 2
  29. Format                                   : AC-3
  30. Format/Info                              : Audio Coding 3
  31. Commercial name                          : Dolby Digital
  32. Codec ID                                 : A_AC3
  33. Duration                                 : 1 h 26 min
  34. Bit rate mode                            : Constant
  35. Bit rate                                 : 192 kb/s
  36. Channel(s)                               : 2 channels
  37. Channel layout                           : L R
  38. Sampling rate                            : 48.0 kHz
  39. Frame rate                               : 31.250 FPS (1536 SPF)
  40. Bit depth                                : 16 bits
  41. Compression mode                         : Lossy
  42. Stream size                              : 118 MiB (2%)
  43. Language                                 : English
  44. Service kind                             : Complete Main
  45. Default                                  : Yes
  46. Forced                                   : No

  47. Menu
  48. 00:00:00.000                             : en:00:00:00.000
  49. 00:08:29.976                             : en:00:08:29.976
  50. 00:16:59.952                             : en:00:16:59.952
  51. 00:25:29.928                             : en:00:25:29.928
  52. 00:33:59.905                             : en:00:33:59.905
  53. 00:42:29.881                             : en:00:42:29.881
  54. 00:50:59.857                             : en:00:50:59.857
  55. 00:59:29.833                             : en:00:59:29.833
  56. 01:07:59.809                             : en:01:07:59.809
  57. 01:16:29.785                             : en:01:16:29.785
复制代码

复制代码

爱丽丝谋杀仙境/杀人乐园 Alice.in.Murderland.2010.1080p.BluRay.x264-SPRiNTER 5.47GB-3.jpg





回复

使用道具 举报

级别:普通观众 Lv.2

UID
11066
注册时间
2018-11-29
最后登录
2018-12-13
听众
0
收听
0
主题
0
蓝光币
79 枚
贡献
0 点
QQ
发表于 7 天前 | 显示全部楼层

我看不错噢 谢谢楼主!中国高清电影网越来越好!
回复

使用道具 举报

级别:普通观众 Lv.2

UID
11421
注册时间
2018-12-4
最后登录
2018-12-14
听众
0
收听
0
主题
0
蓝光币
43 枚
贡献
0 点
发表于 7 天前 | 显示全部楼层
感谢楼主分享精彩电影!
回复

使用道具 举报

懒得打字嘛,点击右侧快捷回复 【右侧内容,后台自定义】
您需要登录后才可以回帖 登录 | 立即注册

本版积分规则

QQ|Archiver|手机版|小黑屋|中国高清网 |网站地图

GMT+8, 2018-12-14 16:37 , Processed in 0.117348 second(s), 42 queries .

Powered by HDchina X3.4

Copyright 2017-2018©HDchina.All right reserved

返回顶部 联系我们