你所知道的4K资源这里全部都有 4K电影 | 4K视频 | 4K壁纸 | 4K MV 怎么播放4K视频 | 4K电视演示片

教你玩转4K私人与家庭影院存储 NAS组装 | 黑群辉 家庭/影院Nas论坛

4K家庭影院信号源与视频设备知识 4K蓝光高清播放机 - 那个品牌好? 4K投影机论坛 | 4K电视机论坛

手把手教你搭建属于自己的家庭影院 4K家庭影院案例 | 家庭影院音频 4K家庭影院论坛

查看: 27|回复: 0

[剧情片] 血红宝石 Ruby.1977.1080p.BluRay.x264-SPRiNTER 5.47GB

[复制链接]

级别:资源管理组

UID
1
注册时间
2017-10-20
最后登录
2018-12-14
听众
0
收听
0
主题
73005
蓝光币
104512 枚
贡献
142813 点
发表于 2018-12-6 20:47:17 | 显示全部楼层 |阅读模式

血红宝石 Ruby.1977.1080p.BluRay.x264-SPRiNTER 5.47GB-1.jpg
血红宝石 Ruby.1977.1080p.BluRay.x264-SPRiNTER 5.47GB-2.jpg

◎译  名 血红宝石
◎片  名 ruby
◎年  代 1977
◎产  地 美国
◎类  别 剧情 / 可骇
◎语  言 英语
◎上映日期 1977-06-23
◎IMDb评分 4.8/10 from 597 users
◎IMDb链接 http://www.imdb.com/title/tt0076644
◎豆瓣评分 0/10 from 0 users
◎豆瓣链接 https://movie.douban.com/subject/2255653/
◎片  长 85 分钟
◎导  演 Curtis Harrington
◎主  演 Piper Laurie
      Stuart Whitman
      Roger Davis


◎标  签 灵异 | 惊悚 | 可骇 | 补遗 | 坏品味 | x264 | tehPARADOX | 1970s

◎简  介  

  In 1935, a lowlife mobster, Nikki Rocco, is betrayed and executed in the swampy backwoods as his pregnant gun-moll, Ruby Claire watches. He swears vengeance with his dying breath, and then she suddenly goes into labour. Sixteen years later in 1951, Ruby is now running a drive-in theatre in the backwoods near her home and employs some ex-mobsters. Her 16-year-old daughter, Leslie Claire, is mute and has been since birth.
Soon strange and bizarre accidents claim the lives of Ruby's employees, then Leslie begins to show strange behaviour, and then begins to speak... in her dead father's voice. Nikki Rocco possesses his daughter's body and terrorizes Ruby with levitations, telekinesis, maniacal laughing and bizarre sexual aggression.


  1. Video
  2. ID                                       : 1
  3. Format                                   : AVC
  4. Format/Info                              : Advanced Video Codec
  5. Format profile                           : [url=/cdn-cgi/l/email-protection][email protected][/url]
  6. Format settings                          : CABAC / 4 Ref Frames
  7. Format settings, CABAC                   : Yes
  8. Format settings, ReFrames                : 4 frames
  9. Codec ID                                 : V_MPEG4/ISO/AVC
  10. Duration                                 : 1 h 24 min
  11. Bit rate                                 : 8 607 kb/s
  12. Width                                    : 1 920 pixels
  13. Height                                   : 1 040 pixels
  14. Display aspect ratio                     : 1.85:1
  15. Frame rate mode                          : Constant
  16. Frame rate                               : 23.976 (24000/1001) FPS
  17. Color space                              : YUV
  18. Chroma subsampling                       : 4:2:0
  19. Bit depth                                : 8 bits
  20. Scan type                                : Progressive
  21. Bits/(Pixel*Frame)                       : 0.180
  22. Stream size                              : 5.09 GiB (93%)
  23. Writing library                          : x264 core 157 r2935 545de2f
  24. Encoding settings                        : cabac=1 / ref=4 / deblock=1:-3:-3 / analyse=0x3:0x133 / me=umh / subme=8 / psy=1 / psy_rd=1.00:0.00 / mixed_ref=1 / me_range=16 / chroma_me=1 / trellis=1 / 8x8dct=1 / cqm=0 / deadzone=21,11 / fast_pskip=0 / chroma_qp_offset=-2 / threads=30 / lookahead_threads=5 / sliced_threads=0 / nr=0 / decimate=1 / interlaced=0 / bluray_compat=0 / constrained_intra=0 / bframes=3 / b_pyramid=2 / b_adapt=1 / b_bias=0 / direct=3 / weightb=1 / open_gop=0 / weightp=2 / keyint=250 / keyint_min=23 / scenecut=40 / intra_refresh=0 / rc_lookahead=50 / rc=2pass / mbtree=1 / bitrate=8607 / ratetol=1.0 / qcomp=0.60 / qpmin=0 / qpmax=69 / qpstep=4 / cplxblur=20.0 / qblur=0.5 / vbv_maxrate=62500 / vbv_bufsize=78125 / nal_hrd=none / filler=0 / ip_ratio=1.40 / aq=1:1.00
  25. Default                                  : Yes
  26. Forced                                   : No

  27. Audio
  28. ID                                       : 2
  29. Format                                   : AC-3
  30. Format/Info                              : Audio Coding 3
  31. Commercial name                          : Dolby Digital
  32. Codec ID                                 : A_AC3
  33. Duration                                 : 1 h 24 min
  34. Bit rate mode                            : Constant
  35. Bit rate                                 : 640 kb/s
  36. Channel(s)                               : 2 channels
  37. Channel layout                           : L R
  38. Sampling rate                            : 48.0 kHz
  39. Frame rate                               : 31.250 FPS (1536 SPF)
  40. Bit depth                                : 16 bits
  41. Compression mode                         : Lossy
  42. Stream size                              : 387 MiB (7%)
  43. Language                                 : English
  44. Service kind                             : Complete Main
  45. Default                                  : Yes
  46. Forced                                   : No

  47. Menu
  48. 00:00:00.000                             : en:00:00:00.000
  49. 00:04:19.217                             : en:00:04:19.217
  50. 00:12:31.334                             : en:00:12:31.334
  51. 00:21:56.357                             : en:00:21:56.357
  52. 00:27:25.310                             : en:00:27:25.310
  53. 00:33:52.864                             : en:00:33:52.864
  54. 00:39:10.348                             : en:00:39:10.348
  55. 00:44:51.105                             : en:00:44:51.105
  56. 00:52:05.539                             : en:00:52:05.539
  57. 00:57:09.259                             : en:00:57:09.259
  58. 01:07:18.243                             : en:01:07:18.243
  59. 01:16:03.392                             : en:01:16:03.392
  60. 01:19:24.802                             : en:01:19:24.802
复制代码

复制代码

血红宝石 Ruby.1977.1080p.BluRay.x264-SPRiNTER 5.47GB-3.jpg





回复

使用道具 举报

懒得打字嘛,点击右侧快捷回复 【右侧内容,后台自定义】
您需要登录后才可以回帖 登录 | 立即注册

本版积分规则

QQ|Archiver|手机版|小黑屋|中国高清网 |网站地图

GMT+8, 2018-12-14 15:44 , Processed in 0.111991 second(s), 41 queries .

Powered by HDchina X3.4

Copyright 2017-2018©HDchina.All right reserved

返回顶部 联系我们