你所知道的4K资源这里全部都有 4K电影 | 4K视频 | 4K壁纸 | 4K MV 怎么播放4K视频 | 4K电视演示片

教你玩转4K私人与家庭影院存储 NAS组装 | 黑群辉 家庭/影院Nas论坛

4K家庭影院信号源与视频设备知识 4K蓝光高清播放机 - 那个品牌好? 4K投影机论坛 | 4K电视机论坛

手把手教你搭建属于自己的家庭影院 4K家庭影院案例 | 家庭影院音频 4K家庭影院论坛

查看: 32|回复: 0

[剧情片] 非凡任务 Extraordinary.Mission.2017.720p.BluRay.x264-SPRiNTER 5.46GB

[复制链接]

级别:资源管理组

UID
1
注册时间
2017-10-20
最后登录
2018-12-14
听众
0
收听
0
主题
73005
蓝光币
104512 枚
贡献
142813 点
发表于 2018-12-6 20:46:22 | 显示全部楼层 |阅读模式
! I, g: e% ~9 v! x; U. K) e
非凡使命 Extraordinary.Mission.2017.720p.BluRay.x264-SPRiNTER 5.46GB-1.jpg ( K, o' R, N# B5 [
非凡使命 Extraordinary.Mission.2017.720p.BluRay.x264-SPRiNTER 5.46GB-2.jpg
/ ]+ _2 `: N8 D1 t% o
0 }4 g: p1 N; _) X2 Q/ K0 A* A1 t◎译  名 Extraordinary Mission / 猎鹰
  [1 R$ y* w' T/ A9 C◎片  名 非凡使命
5 l: M- o( T; e4 k% D9 F5 W◎年  代 2017
! s! b$ P/ l  i( `◎产  地 中国大陆
0 _2 W9 }* i) k7 z& v& B9 c" w◎类  别 剧情 / 行动 / 犯罪
) q" a3 U# c! H4 Z3 Y◎语  言 汉语普通话( Z. }, ]/ s  \+ P
◎上映日期 2017-03-31(中国大陆)
- M+ a- \3 ]$ A  k4 |( S0 h8 M' ?◎IMDb评分 6.3/10 from 460 users  v' X1 O" [9 |& w2 |6 g9 d7 V% S
◎IMDb链接 http://www.imdb.com/title/tt6690310
* o* ]% q1 p( B% I' S- A8 c◎豆瓣评分 6.3/10 from 51577 users
) X( O2 w& H1 f% ^; r◎豆瓣链接 https://movie.douban.com/subject/26616690/
0 v$ b, C: S: W/ C◎片  长 122分钟  ?* {2 \% a7 p0 x" O5 Q
◎导  演 麦兆辉 Alan Mak / 潘耀明 Anthony Pun- ]- ~$ w/ B8 [7 K/ Y$ F
◎编  剧 庄文强 Felix Chong1 d3 w; x0 m6 R& V3 }# A, P, N0 f. y
◎主  演 黄轩 Xuan Huang
3 x9 J* n' }8 q/ C3 T      段奕宏 Yihong Duan
6 z' S& m' ^" N! G2 J: v  P, O: Y      郎月婷 Yueting Lang
' f: m7 {) ~6 v$ ^5 i7 Q. E, Q" z      祖峰 Feng Zu+ R$ A% @* Z7 r0 D3 X
      邢佳栋 Jiadong Xing
/ R; d5 W1 b- @2 m, D$ p      王耀庆 David Wang
5 J" K3 k6 i9 k; @      王砚辉 Yanhui Wang
6 \( t- g. @$ L/ X% N+ K      丁勇岱 Yongdai Ding
2 g% a2 G* o; z9 J( T      肖聪 Cong Xiao3 ]" D3 A  Z- y: {( d" }. ^
      李晓川 Xiaochuan Li( a4 L2 A& l2 ]. i8 Q6 e
      赵炳锐 Bingrui Zhao
5 U% Q  q1 F* @3 L+ L; J/ k      代乐乐 Lele Dai
4 q. o+ Q! L5 C      陶海 Hai Tao4 Q' y" d# @& b1 A) p' H
% A) \) \+ s8 `3 B

3 h8 e# ^5 l* X" A) r8 q- h  u◎标  签 缉毒 | 行动 | 警匪 | 犯罪 | 中国大陆 | 2017 | 卧底 | 毒品$ [# U8 e, t5 y+ T: E7 O" S) ]
% ]" x7 S2 R* y% N
◎简  介  
4 @! P' U9 G5 n
7 E0 A: H/ I- ]3 _. V' Z  林凯(黄轩 饰)是李开国(祖峰 饰)安插在贩毒团体的卧底,他慢慢渗透到“双鹰”贩毒团体后,发现幕背面子“老鹰”(段奕宏 饰)与八年前李开国作为卧底观察的贩毒团体有关,还软禁了那时李开国的下级,终极林凯与李开国奇妙配合摧毁了全部贩毒团体。# C; Q, A6 M( c' S
9 c: {, t+ z; d$ f( G& r8 \- l
◎获奖情况  
" L1 i4 A% y- P: k% Z# j' W7 l% N9 [0 G( @
  第4届豆瓣电影年度榜单(2017)6 \5 P4 L2 H# J/ P( Z. j8 A* g
  4月最受关注电影(提名)4 b/ N. ]& ]# ^" g9 T

7 i' ~& O; m! q& {% b5 g' Y$ q6 J# [+ `0 V$ s# g* d

( E: F( t( b1 G" p' Y$ M
  1. ! |- e( `7 T: A
  2. Video: q/ R$ _2 P% ^
  3. ID                                       : 1
    ' g) Z. D5 _1 f, e1 Q
  4. Format                                   : AVC
    ) e- P" E- s* t! h
  5. Format/Info                              : Advanced Video Codec
    - y# `. Y# `! T% {5 h! y( i
  6. Format profile                           : [url=/cdn-cgi/l/email-protection][email protected][/url]5 h( h& }6 r, h
  7. Format settings                          : CABAC / 5 Ref Frames3 [7 p. H1 R- A  U6 @5 Z$ t6 \
  8. Format settings, CABAC                   : Yes/ I" O+ e  a4 o2 ]& M
  9. Format settings, ReFrames                : 5 frames1 b' [/ W, Q1 Q2 c3 M* L" [
  10. Codec ID                                 : V_MPEG4/ISO/AVC: f/ M: R5 F: }# M7 v3 U
  11. Duration                                 : 2 h 1 min( {$ A# ?9 j- W! @. P
  12. Bit rate                                 : 4 925 kb/s$ |. E+ D. T& Z* [1 o- z6 P* e
  13. Width                                    : 1 280 pixels
    ) [8 C  G  J2 D0 l" r6 Q* L
  14. Height                                   : 536 pixels5 k( P7 N, o) w  S# R8 w
  15. Display aspect ratio                     : 2.40:15 S* T" \% _) x8 W  z: W
  16. Frame rate mode                          : Constant
    1 A6 l; s/ _& J+ F
  17. Frame rate                               : 23.976 (24000/1001) FPS/ i; ~8 M1 K1 o+ w7 E
  18. Color space                              : YUV
    , o$ z3 V, ]+ W5 R3 G; Q# t
  19. Chroma subsampling                       : 4:2:0% S! ^4 D/ Q( F
  20. Bit depth                                : 8 bits
    ' l& ?! l% _5 z% ]. t, k: y
  21. Scan type                                : Progressive
    + y7 R5 H6 B# b$ J
  22. Bits/(Pixel*Frame)                       : 0.299
    0 @7 s5 V( _# B; F
  23. Stream size                              : 4.18 GiB (77%)
      u3 ]# F' Y9 u1 z  M) z* Z
  24. Writing library                          : x264 core 157 r2935 545de2f. K% R# t; c0 u* T! @1 j$ c
  25. Encoding settings                        : cabac=1 / ref=5 / deblock=1:-3:-3 / analyse=0x3:0x133 / me=umh / subme=8 / psy=1 / psy_rd=1.00:0.00 / mixed_ref=1 / me_range=16 / chroma_me=1 / trellis=1 / 8x8dct=1 / cqm=0 / deadzone=21,11 / fast_pskip=0 / chroma_qp_offset=-2 / threads=17 / lookahead_threads=2 / sliced_threads=0 / nr=0 / decimate=1 / interlaced=0 / bluray_compat=0 / constrained_intra=0 / bframes=3 / b_pyramid=2 / b_adapt=1 / b_bias=0 / direct=3 / weightb=1 / open_gop=0 / weightp=2 / keyint=250 / keyint_min=23 / scenecut=40 / intra_refresh=0 / rc_lookahead=50 / rc=2pass / mbtree=1 / bitrate=4925 / ratetol=1.0 / qcomp=0.60 / qpmin=0 / qpmax=69 / qpstep=4 / cplxblur=20.0 / qblur=0.5 / vbv_maxrate=62500 / vbv_bufsize=78125 / nal_hrd=none / filler=0 / ip_ratio=1.40 / aq=1:1.00
    & W; z3 h3 |4 ]4 O
  26. Default                                  : Yes
    $ n8 O  O" v. M" A0 e- t% D
  27. Forced                                   : No/ @( f% l" H. @
  28. 9 l6 [! R! w& d: P& A
  29. Audio/ M# e+ W6 F/ G* K
  30. ID                                       : 22 r0 A3 h* a, h3 M
  31. Format                                   : DTS
    + n- s0 k/ m6 @& F
  32. Format/Info                              : Digital Theater Systems
    . j8 @; B5 x7 t9 Q8 h
  33. Codec ID                                 : A_DTS
    9 y# c( B) N( S/ T$ `# F
  34. Duration                                 : 2 h 1 min6 K' v" a( \9 v
  35. Bit rate mode                            : Constant
      U% e: m" a) q, I, f$ A) _
  36. Bit rate                                 : 1 509 kb/s
    , v7 Q1 \/ x. f
  37. Channel(s)                               : 6 channels
    - F9 w( e: o( W, V$ i9 s5 Q# l
  38. Channel layout                           : C L R Ls Rs LFE9 w& E! l$ r$ u( Z) d* r* A2 f
  39. Sampling rate                            : 48.0 kHz' l" B* z/ f5 ]6 V2 g) k
  40. Frame rate                               : 93.750 FPS (512 SPF)
    ! W2 I. h, r, \7 a  U" U0 h# q$ j2 Y: x
  41. Bit depth                                : 24 bits; ~8 q, }9 z8 M: Y4 P! S0 n
  42. Compression mode                         : Lossy2 ^4 y% U  |) j  I: ~, S- `  @" p
  43. Stream size                              : 1.28 GiB (23%)8 ^+ n  m# ^7 |
  44. Language                                 : Chinese
    - C9 ]9 m5 }; `
  45. Default                                  : Yes
      t: k4 d: t0 s+ `* w
  46. Forced                                   : No
    * O# t8 a& N5 y

  47. ! r/ X. Q( e* _6 T+ c
  48. Text: R7 L% m* q' Q
  49. ID                                       : 3  W' Q: ?) k1 B( T
  50. Format                                   : UTF-8  w5 F' V9 y9 v& }
  51. Codec ID                                 : S_TEXT/UTF86 C- M: N: p2 b0 u& v: D  I
  52. Codec ID/Info                            : UTF-8 Plain Text+ J  o( s3 o0 R2 O
  53. Duration                                 : 1 h 54 min
    " L! U$ x7 ?& G) W! R/ ]
  54. Bit rate                                 : 23 b/s" X8 ]& e8 A3 N
  55. Count of elements                        : 900
    . ~( J6 M) F* p
  56. Stream size                              : 20.1 KiB (0%)
    & H: Z+ R' D3 V) M* }
  57. Language                                 : English+ o) S: D7 C  V# x, v3 d
  58. Default                                  : Yes# P4 Q' I  J! I: Y- ]; D1 y' Z* o2 M; m
  59. Forced                                   : No
    : `9 O2 ]. s* t3 R
  60. # G4 r3 r9 _& Z6 ^0 {4 e9 W! i' S) G
  61. Menu) }$ j  I8 R! I* K
  62. 00:00:00.000                             : en:00:00:00.000/ i7 F  i6 Q- }9 |5 D& c
  63. 00:16:39.290                             : en:00:16:39.290
    ( R: r7 S+ g- V. L. a
  64. 00:34:04.542                             : en:00:34:04.542. \, H( T; N* D2 q6 v
  65. 00:49:07.653                             : en:00:49:07.653
    3 q0 X# n# u, Q9 q$ m
  66. 01:05:47.443                             : en:01:05:47.443; [7 b+ v0 E/ b
  67. 01:22:36.410                             : en:01:22:36.410
    ) n1 I- y5 H3 L( ^% V3 ?
  68. 01:38:49.048                             : en:01:38:49.048% [  a2 ^, P0 Q" M- Y( D& _4 K
  69. 01:56:29.900                             : en:01:56:29.900! J! I1 R& @! o; O1 Y
复制代码

$ t7 A8 i* _$ {# [* ]9 R复制代码/ Q0 M5 D% e: h/ h
! P3 G6 q6 |  k0 g: W$ b% X2 l
非凡使命 Extraordinary.Mission.2017.720p.BluRay.x264-SPRiNTER 5.46GB-3.jpg
. z: G7 ]: g* @2 A- P- _. o) y! ^
) R+ h/ z6 q$ \( e  b/ C* o; R0 @
回复

使用道具 举报

懒得打字嘛,点击右侧快捷回复 【右侧内容,后台自定义】
您需要登录后才可以回帖 登录 | 立即注册

本版积分规则

QQ|Archiver|手机版|小黑屋|中国高清网 |网站地图

GMT+8, 2018-12-14 15:13 , Processed in 0.129665 second(s), 41 queries .

Powered by HDchina X3.4

Copyright 2017-2018©HDchina.All right reserved

返回顶部 联系我们