你所知道的4K资源这里全部都有 4K电影 | 4K视频 | 4K壁纸 | 4K MV 怎么播放4K视频 | 4K电视演示片

教你玩转4K私人与家庭影院存储 NAS组装 | 黑群辉 家庭/影院Nas论坛

4K家庭影院信号源与视频设备知识 4K蓝光高清播放机 - 那个品牌好? 4K投影机论坛 | 4K电视机论坛

手把手教你搭建属于自己的家庭影院 4K家庭影院案例 | 家庭影院音频 4K家庭影院论坛

查看: 93|回复: 0

[剧情片] 非凡任务 Extraordinary.Mission.2017.720p.BluRay.x264-SPRiNTER 5.46GB

[复制链接]

 成长值: 1380

级别:资源管理组

注册时间
2017-10-20
最后登录
2019-5-26
听众
0
收听
0
主题
77701
蓝光币
19880 枚
贡献
2022 点
发表于 2018-12-6 20:46:22 | 显示全部楼层 |阅读模式

# |6 @( K2 e1 |* U2 u0 h 非凡使命 Extraordinary.Mission.2017.720p.BluRay.x264-SPRiNTER 5.46GB-1.jpg + @) ]* x+ y  [# W# O
非凡使命 Extraordinary.Mission.2017.720p.BluRay.x264-SPRiNTER 5.46GB-2.jpg
5 h: n$ {1 X: A& b$ D1 s
1 Q/ v" I1 K2 X◎译  名 Extraordinary Mission / 猎鹰
4 }' [# F. ~1 f/ I5 z◎片  名 非凡使命
: m6 B: ^. k7 p- `/ ^: }8 m◎年  代 20178 ~2 X3 I5 s6 X; u6 Y/ b
◎产  地 中国大陆( d4 E! |8 t/ I; E% I3 x5 y
◎类  别 剧情 / 行动 / 犯罪
5 U' h4 ]5 @$ Y6 [8 ~$ v( S◎语  言 汉语普通话6 A, |+ e+ m3 T. k
◎上映日期 2017-03-31(中国大陆)
. B0 p/ s% e5 A# |) D3 u◎IMDb评分 6.3/10 from 460 users
6 h' h. e" z, u: C8 s( E7 |$ R◎IMDb链接 http://www.imdb.com/title/tt6690310
5 `* M1 g! L% o◎豆瓣评分 6.3/10 from 51577 users
; `- `* e& L) a◎豆瓣链接 https://movie.douban.com/subject/26616690/, P9 h7 _( i4 N1 i9 S' @. u
◎片  长 122分钟
  O4 }, d' o! R) b5 R- t) n* H◎导  演 麦兆辉 Alan Mak / 潘耀明 Anthony Pun3 l& m' }3 B; a) E1 x
◎编  剧 庄文强 Felix Chong$ G/ s3 R" }8 Y: z* J  c5 s: c
◎主  演 黄轩 Xuan Huang
4 @6 G! u2 i+ n2 P      段奕宏 Yihong Duan
( X+ k3 I- Z* t' |* c3 y( g      郎月婷 Yueting Lang/ m2 I$ b6 i) M0 [+ [9 _
      祖峰 Feng Zu
1 H- @3 @3 m( k+ ?$ ~      邢佳栋 Jiadong Xing
- A7 {8 d& h; `2 D; t. B      王耀庆 David Wang
0 n7 Q0 F6 z  _6 R2 k% r3 \      王砚辉 Yanhui Wang. i) T% O0 c% @: i; a: v; N
      丁勇岱 Yongdai Ding7 o3 h+ w$ p' u" j" M6 u
      肖聪 Cong Xiao
: |% n" W, g2 R/ Z      李晓川 Xiaochuan Li+ w7 F- F7 C2 A0 x# N' _7 M
      赵炳锐 Bingrui Zhao
! _9 d! T4 {6 @3 U: y      代乐乐 Lele Dai  x$ n0 N% c$ W) Q; l
      陶海 Hai Tao' \4 ?( Z7 `- m) s

. w- O8 R  I" l  }) G. q
* h2 r8 _6 K) ^9 I- Z/ r7 k◎标  签 缉毒 | 行动 | 警匪 | 犯罪 | 中国大陆 | 2017 | 卧底 | 毒品5 `! `0 a8 P; V1 X2 ^

$ M& k# H! h5 l◎简  介  4 F; f) \2 ]( Q$ G4 r' o

8 ~$ `0 T2 g& g- ?# n  林凯(黄轩 饰)是李开国(祖峰 饰)安插在贩毒团体的卧底,他慢慢渗透到“双鹰”贩毒团体后,发现幕背面子“老鹰”(段奕宏 饰)与八年前李开国作为卧底观察的贩毒团体有关,还软禁了那时李开国的下级,终极林凯与李开国奇妙配合摧毁了全部贩毒团体。
, E& t) R& I) l" F0 u8 ~/ O/ N0 S+ \2 _" q7 M+ T) J$ q
◎获奖情况  6 A+ q: M6 @2 y% M/ ]

: I( t8 g' R. `  第4届豆瓣电影年度榜单(2017)4 H/ q+ ~# s" v* D
  4月最受关注电影(提名)3 ?* e6 C/ _, {" E3 B# E; X/ o

6 q* ?; o) a7 P
4 r8 f3 l: y6 h/ N( D8 b5 p) M4 h7 G) p% d' ^
  1. % p: c1 W, t* f4 _) H2 V
  2. Video
    - P, E0 ?" m/ ^3 c# Y2 U8 |
  3. ID                                       : 1& R1 w) P+ v! \3 @
  4. Format                                   : AVC' f9 f3 x7 ~4 S/ `# Z4 Y
  5. Format/Info                              : Advanced Video Codec' K" Q( y: x4 I7 k1 [4 f- Q
  6. Format profile                           : [url=/cdn-cgi/l/email-protection][email protected][/url]
    ! O$ r# r7 A( {9 [, H( F; _  @
  7. Format settings                          : CABAC / 5 Ref Frames
    ! n& L6 D  N/ `3 p- i2 P; Q% h1 G
  8. Format settings, CABAC                   : Yes& u7 l- z8 m; N4 K- u$ Q
  9. Format settings, ReFrames                : 5 frames: S0 f/ R& i# t* h3 [8 d: v
  10. Codec ID                                 : V_MPEG4/ISO/AVC! B8 {' v. L, z" M
  11. Duration                                 : 2 h 1 min
    / |8 e, y* \. ~
  12. Bit rate                                 : 4 925 kb/s
    * y0 b  j, G! p, r
  13. Width                                    : 1 280 pixels& b  H  g- F' r) d
  14. Height                                   : 536 pixels. v6 z8 s, C( r0 B
  15. Display aspect ratio                     : 2.40:11 _: j( h6 s% t  ~. @+ j
  16. Frame rate mode                          : Constant# E. p" u3 O( V5 T( T2 z- i! ]
  17. Frame rate                               : 23.976 (24000/1001) FPS
    ! R# G# M/ J+ K/ Q" m6 h
  18. Color space                              : YUV0 b, b' Y: x  t' r1 `# J8 Q
  19. Chroma subsampling                       : 4:2:0( Q, b7 ^# J+ t5 o# ]
  20. Bit depth                                : 8 bits% W" U' k3 }7 A' e; V" m3 y
  21. Scan type                                : Progressive* _) h8 E& X* {
  22. Bits/(Pixel*Frame)                       : 0.299
    5 T  y: E: a! y& z6 w$ f! J
  23. Stream size                              : 4.18 GiB (77%)  L: I) [' v/ {/ g2 w7 ^; o6 a
  24. Writing library                          : x264 core 157 r2935 545de2f/ o9 q& y1 k/ T7 t
  25. Encoding settings                        : cabac=1 / ref=5 / deblock=1:-3:-3 / analyse=0x3:0x133 / me=umh / subme=8 / psy=1 / psy_rd=1.00:0.00 / mixed_ref=1 / me_range=16 / chroma_me=1 / trellis=1 / 8x8dct=1 / cqm=0 / deadzone=21,11 / fast_pskip=0 / chroma_qp_offset=-2 / threads=17 / lookahead_threads=2 / sliced_threads=0 / nr=0 / decimate=1 / interlaced=0 / bluray_compat=0 / constrained_intra=0 / bframes=3 / b_pyramid=2 / b_adapt=1 / b_bias=0 / direct=3 / weightb=1 / open_gop=0 / weightp=2 / keyint=250 / keyint_min=23 / scenecut=40 / intra_refresh=0 / rc_lookahead=50 / rc=2pass / mbtree=1 / bitrate=4925 / ratetol=1.0 / qcomp=0.60 / qpmin=0 / qpmax=69 / qpstep=4 / cplxblur=20.0 / qblur=0.5 / vbv_maxrate=62500 / vbv_bufsize=78125 / nal_hrd=none / filler=0 / ip_ratio=1.40 / aq=1:1.00
    5 b1 J0 N  k, Q% `7 ^: R
  26. Default                                  : Yes
    % T9 {5 e7 F8 q+ ^) j
  27. Forced                                   : No
    ' |+ r* R8 ?' n  O$ j) \3 w

  28. 4 v- y" G6 h4 i( M0 ~0 l' b6 x
  29. Audio
    ) C/ E- X7 c3 J# u: Q$ w5 P! p/ J
  30. ID                                       : 2
    / ~% p& z) L, y' a" T5 s+ m
  31. Format                                   : DTS3 ~  P6 o: w: ?0 u5 B
  32. Format/Info                              : Digital Theater Systems6 ^' Y& N" q( [# @
  33. Codec ID                                 : A_DTS
    ; s! z8 h* S$ R* M
  34. Duration                                 : 2 h 1 min  Q$ f# B) K  Y  ^% q
  35. Bit rate mode                            : Constant
    . }2 w0 f* t* T! e
  36. Bit rate                                 : 1 509 kb/s! R; {% Y4 k1 O4 c( x  g9 J; z
  37. Channel(s)                               : 6 channels) m- i: ~( _2 m5 l5 n1 f; h
  38. Channel layout                           : C L R Ls Rs LFE
    8 U% l$ p. m- t7 }# V
  39. Sampling rate                            : 48.0 kHz
    ' Z9 M2 E9 c3 l1 Q
  40. Frame rate                               : 93.750 FPS (512 SPF)  d# |, L0 t9 R' z9 K9 \
  41. Bit depth                                : 24 bits' J- f! p( K# I, I
  42. Compression mode                         : Lossy6 \: s' k* K. i4 [3 w4 R/ m
  43. Stream size                              : 1.28 GiB (23%)
    ! _" K+ u6 m  ^: F0 }
  44. Language                                 : Chinese
    # N1 m9 y/ {) w" T. Q3 x
  45. Default                                  : Yes  c; g% e' N, k
  46. Forced                                   : No6 g+ f* X, Z# z5 S
  47. 5 e. X# Q  h6 B
  48. Text
    - _9 [0 v. i/ M
  49. ID                                       : 3( b& K8 G9 u$ V
  50. Format                                   : UTF-8
    9 ?& }! x: T& A  G7 _
  51. Codec ID                                 : S_TEXT/UTF8
    ' e( y, d' @7 F4 L! b
  52. Codec ID/Info                            : UTF-8 Plain Text
    1 f$ E# Q- G- @1 J: ]! I9 n! t! b
  53. Duration                                 : 1 h 54 min
    # C8 ~1 f! c! l) [; `. P/ z7 e
  54. Bit rate                                 : 23 b/s
    $ x2 c! ~3 V" F8 B* E/ R& P
  55. Count of elements                        : 900+ q8 P3 s! n7 b1 p; D3 {  t6 W  z2 n. |& n
  56. Stream size                              : 20.1 KiB (0%)6 F& Z5 c1 E4 a2 Q- v
  57. Language                                 : English3 ?* ~4 O; f* I! J4 Y1 u# a
  58. Default                                  : Yes2 p# i) O; `6 [0 d! V/ R
  59. Forced                                   : No# N5 j% a: I" g' w

  60. 8 e" v3 ^0 f1 K3 i
  61. Menu; o. Y8 ]. }6 q5 {8 q8 D; h, S
  62. 00:00:00.000                             : en:00:00:00.000
    " @1 }% v, s4 X: m* j  u
  63. 00:16:39.290                             : en:00:16:39.290
    1 q2 s$ p* ?( Y3 J" D5 g
  64. 00:34:04.542                             : en:00:34:04.542" r5 ~/ @: D. q( s  u- W
  65. 00:49:07.653                             : en:00:49:07.653; l. |3 P5 S8 V: E5 j6 s% t  z  O
  66. 01:05:47.443                             : en:01:05:47.4439 b8 q( _9 A6 J# `( D6 O- ^) n  ~
  67. 01:22:36.410                             : en:01:22:36.410
    9 @1 x! t% K/ b9 E- i" ]) w5 o4 P
  68. 01:38:49.048                             : en:01:38:49.0486 B/ R8 i: L. G: b( J! ~
  69. 01:56:29.900                             : en:01:56:29.9008 N" {7 x  a, |
复制代码

! t6 s1 x4 z& V# D6 {2 G1 b' j复制代码
7 f: t) ^7 R1 s( t9 t8 M3 S% X% p$ V/ F- y; F% N. M2 x: P# M* @% |: O
非凡使命 Extraordinary.Mission.2017.720p.BluRay.x264-SPRiNTER 5.46GB-3.jpg
' Z1 q! c! i0 F7 G; O9 o* g# ^# j7 w5 A" A) @
$ N+ u6 i4 v1 w1 r* H; h/ G, u
回复

使用道具 举报

*滑动验证:
懒得打字嘛,点击右侧快捷回复 【右侧内容,后台自定义】
您需要登录后才可以回帖 登录 | 立即注册

本版积分规则

QQ|Archiver|手机版|小黑屋| 中国高清网 |网站地图

GMT+8, 2019-5-27 00:57 , Processed in 0.154400 second(s), 46 queries .

Powered by HDchina X3.4

Copyright 2017-2019©HDchina.All right reserved

返回顶部 联系我们