你所知道的4K资源这里全部都有 4K电影 | 4K视频 | 4K壁纸 | 4K MV 怎么播放4K视频 | 4K电视演示片

教你玩转4K私人与家庭影院存储 NAS组装 | 黑群辉 家庭/影院Nas论坛

4K家庭影院信号源与视频设备知识 4K蓝光高清播放机 - 那个品牌好? 4K投影机论坛 | 4K电视机论坛

手把手教你搭建属于自己的家庭影院 4K家庭影院案例 | 家庭影院音频 4K家庭影院论坛

查看: 69|回复: 0

[剧情片] 非凡任务 Extraordinary.Mission.2017.720p.BluRay.x264-SPRiNTER 5.46GB

[复制链接]

 成长值: 420

级别:资源管理组

注册时间
2017-10-20
最后登录
2019-2-21
听众
0
收听
0
主题
74871
蓝光币
125838 枚
贡献
144680 点
发表于 2018-12-6 20:46:22 | 显示全部楼层 |阅读模式
' u5 @# M+ a. Y+ O
非凡使命 Extraordinary.Mission.2017.720p.BluRay.x264-SPRiNTER 5.46GB-1.jpg
. v. B& e8 Z6 q 非凡使命 Extraordinary.Mission.2017.720p.BluRay.x264-SPRiNTER 5.46GB-2.jpg 8 t/ P7 ]  ~4 D7 C

; [4 k" A! q# Z5 ~& ^& V0 n" i9 D' ~◎译  名 Extraordinary Mission / 猎鹰) K' s9 F( o1 p4 Y. z
◎片  名 非凡使命
  F4 p; @1 g: j( x! v& c& t◎年  代 2017% U3 b# |/ I$ r, k- g4 M7 M; l" z
◎产  地 中国大陆, g1 i. H* Q: l0 u, p- i* f' ^+ t3 h
◎类  别 剧情 / 行动 / 犯罪
2 A/ s" i) C: \6 H◎语  言 汉语普通话9 m. Z: j' K. S7 D8 `+ s
◎上映日期 2017-03-31(中国大陆)1 Y6 Y* Q5 H& e2 B4 K* k" E
◎IMDb评分 6.3/10 from 460 users
% w- {+ c0 [. L- d% a6 x( [$ x◎IMDb链接 http://www.imdb.com/title/tt6690310
5 X% W# E% {( Y7 S( K◎豆瓣评分 6.3/10 from 51577 users
1 _& l$ O9 s" u9 u5 P6 V◎豆瓣链接 https://movie.douban.com/subject/26616690/6 z2 w; `( a; h, k2 A
◎片  长 122分钟& s* U! |) P" ~
◎导  演 麦兆辉 Alan Mak / 潘耀明 Anthony Pun, ]: y+ `) e2 d$ \
◎编  剧 庄文强 Felix Chong$ P! u1 H& ]1 P# H
◎主  演 黄轩 Xuan Huang
" D) M7 d. U$ S) S      段奕宏 Yihong Duan
( ~& Z* V2 C( O6 l# {6 y( N0 ^      郎月婷 Yueting Lang
/ L6 o% U/ R6 v3 S      祖峰 Feng Zu; O% F8 A5 i6 ^% A2 |0 Z
      邢佳栋 Jiadong Xing
* a) K% S1 n: V' E      王耀庆 David Wang. ]( F: F+ k9 }9 x1 a
      王砚辉 Yanhui Wang7 c9 O2 h, r2 q6 |* I# r$ N
      丁勇岱 Yongdai Ding
, k0 Q! _3 l6 _8 ~* R/ @- J      肖聪 Cong Xiao9 v( M- d: q  y8 D0 b/ _
      李晓川 Xiaochuan Li
* f7 ^# u. e3 v9 x' ]9 H* [      赵炳锐 Bingrui Zhao* C; m. X: H) z; y" u7 q
      代乐乐 Lele Dai
' ?. g+ C5 d$ ~3 _3 Y$ j+ Z: a& _      陶海 Hai Tao
% A7 F, a8 {9 h% V0 c6 E7 ^, e5 U; h: V" ?
9 k* X) h3 U; ~4 l8 ~$ D* F
◎标  签 缉毒 | 行动 | 警匪 | 犯罪 | 中国大陆 | 2017 | 卧底 | 毒品
4 f3 p3 Y/ ?4 Y! h1 ~8 j; e, P' q' S+ X3 e
◎简  介  
/ W0 |+ M! i+ ]
5 |9 q# T" s4 f' I; i6 v  林凯(黄轩 饰)是李开国(祖峰 饰)安插在贩毒团体的卧底,他慢慢渗透到“双鹰”贩毒团体后,发现幕背面子“老鹰”(段奕宏 饰)与八年前李开国作为卧底观察的贩毒团体有关,还软禁了那时李开国的下级,终极林凯与李开国奇妙配合摧毁了全部贩毒团体。
7 ~& S' t! h5 p8 p# `( W: r5 _' T; V7 d" Q/ ]# b& Y
◎获奖情况  
$ N- r1 e/ @# ~; w; J- _% p) {) g* _. m# X  M) X. u- j# c
  第4届豆瓣电影年度榜单(2017)5 t; [5 G9 f( ~, t3 A
  4月最受关注电影(提名), C* M' [3 Y" w* I: p0 G$ `0 R) U& Y
% _+ W% T6 E; m' R6 F- a
3 K1 {# X/ p& L$ D' N/ z- n8 ]' k8 n

* M7 E) a; Z! U. r; X8 p
  1. , q1 ]+ N. o0 ~( r, w
  2. Video
    " Y# |9 j5 }. Y' @# b* ?3 D. g. u6 ?
  3. ID                                       : 11 z3 d9 a' j6 |4 t" N; ^. ^6 U3 r
  4. Format                                   : AVC
    * I# O; C0 r, R$ V
  5. Format/Info                              : Advanced Video Codec
    2 h, b+ t' e% R5 G+ B$ t$ @4 f
  6. Format profile                           : [url=/cdn-cgi/l/email-protection][email protected][/url]
    ) ]1 c) P% D' F6 N, q! V
  7. Format settings                          : CABAC / 5 Ref Frames
    6 r. ^5 e7 f7 g# f/ C9 _+ a
  8. Format settings, CABAC                   : Yes
    4 v0 A6 j# I1 X6 P
  9. Format settings, ReFrames                : 5 frames* L( B6 u5 e! X  q# o6 l
  10. Codec ID                                 : V_MPEG4/ISO/AVC
    - p! G8 x5 a% w* p
  11. Duration                                 : 2 h 1 min
    + u/ y) @2 @) ^- o% }
  12. Bit rate                                 : 4 925 kb/s2 p/ B3 S8 k4 t1 x
  13. Width                                    : 1 280 pixels% W) B7 Z+ k$ P( @
  14. Height                                   : 536 pixels/ P/ u! k( u# C0 B4 s- K
  15. Display aspect ratio                     : 2.40:1( L0 {. N! \0 z" c5 R
  16. Frame rate mode                          : Constant$ ]8 D; O4 A  g" Z+ s7 b( `) ^1 h* A
  17. Frame rate                               : 23.976 (24000/1001) FPS$ r1 i+ M8 b5 P! Q; z
  18. Color space                              : YUV
    $ ~2 A+ I. W9 ]; \' V
  19. Chroma subsampling                       : 4:2:0
    " s  _" R1 F  S% w' ]  A) }
  20. Bit depth                                : 8 bits
    " ~" x. q" m# r0 i% a) b) G4 t' H
  21. Scan type                                : Progressive) [+ W* K6 [: S8 J
  22. Bits/(Pixel*Frame)                       : 0.299- s9 N5 @: _9 }4 Y  s
  23. Stream size                              : 4.18 GiB (77%); z; u3 C1 U/ g2 s
  24. Writing library                          : x264 core 157 r2935 545de2f  R2 T9 H6 O- I& \
  25. Encoding settings                        : cabac=1 / ref=5 / deblock=1:-3:-3 / analyse=0x3:0x133 / me=umh / subme=8 / psy=1 / psy_rd=1.00:0.00 / mixed_ref=1 / me_range=16 / chroma_me=1 / trellis=1 / 8x8dct=1 / cqm=0 / deadzone=21,11 / fast_pskip=0 / chroma_qp_offset=-2 / threads=17 / lookahead_threads=2 / sliced_threads=0 / nr=0 / decimate=1 / interlaced=0 / bluray_compat=0 / constrained_intra=0 / bframes=3 / b_pyramid=2 / b_adapt=1 / b_bias=0 / direct=3 / weightb=1 / open_gop=0 / weightp=2 / keyint=250 / keyint_min=23 / scenecut=40 / intra_refresh=0 / rc_lookahead=50 / rc=2pass / mbtree=1 / bitrate=4925 / ratetol=1.0 / qcomp=0.60 / qpmin=0 / qpmax=69 / qpstep=4 / cplxblur=20.0 / qblur=0.5 / vbv_maxrate=62500 / vbv_bufsize=78125 / nal_hrd=none / filler=0 / ip_ratio=1.40 / aq=1:1.00
    2 @4 B5 O1 O- Q8 {" Z2 A
  26. Default                                  : Yes3 c' |% |8 t0 ?; {) A) C
  27. Forced                                   : No
    : D) y3 N6 {3 J/ \2 J7 M* A: }3 E0 r+ ^
  28. ! \) J" V: f0 H; U0 C
  29. Audio
    5 n  o/ T$ l0 a3 \
  30. ID                                       : 2) T' `: h' `, C: P
  31. Format                                   : DTS
    0 T, u/ A4 z/ V5 R
  32. Format/Info                              : Digital Theater Systems
    ; X5 V- A0 t2 v6 Q; \  J, G+ k+ u
  33. Codec ID                                 : A_DTS  e+ I9 b! m& A* y& y2 E
  34. Duration                                 : 2 h 1 min
      m9 E4 g) o! o& ~4 }8 @; ?
  35. Bit rate mode                            : Constant3 B  i5 u* n" V" q. E! v
  36. Bit rate                                 : 1 509 kb/s3 x- S& F+ l7 T2 _. g
  37. Channel(s)                               : 6 channels: O, U  w: e4 G
  38. Channel layout                           : C L R Ls Rs LFE
    ' [/ A! F8 ?  l9 ]9 h. L  G7 K. V' z
  39. Sampling rate                            : 48.0 kHz
    8 ]5 [$ ]# c& v. x
  40. Frame rate                               : 93.750 FPS (512 SPF)
    0 ^8 M) j8 G' T7 E) {% o; h
  41. Bit depth                                : 24 bits" p7 f; ]+ L( `/ a5 t6 Q- S: @
  42. Compression mode                         : Lossy9 F* f- B# C2 u# z
  43. Stream size                              : 1.28 GiB (23%)
    ( L4 ^! J, _/ G; Y4 s
  44. Language                                 : Chinese# f/ l& _& ]) ^' `( z, J- i
  45. Default                                  : Yes
    * w+ m1 I8 K! f! g
  46. Forced                                   : No, X! J( W# N# R- J! g6 r( r. a
  47. / O8 x2 }$ G9 I
  48. Text
    8 D8 t% _; U  i* _) R* p
  49. ID                                       : 3
    % ]9 c4 U2 |; G7 Q. s; ]% L
  50. Format                                   : UTF-8
    8 g# c/ @8 p" e, U% X) T
  51. Codec ID                                 : S_TEXT/UTF8* d0 H2 d$ Y/ [( V, d6 B1 e7 a
  52. Codec ID/Info                            : UTF-8 Plain Text" T8 I9 A* r: I  \) M+ p( A
  53. Duration                                 : 1 h 54 min+ r% N  u  v# Y
  54. Bit rate                                 : 23 b/s+ U3 Q% P. i4 ^& p
  55. Count of elements                        : 900  P8 r2 S' U( Q" p7 R
  56. Stream size                              : 20.1 KiB (0%)
    / r. j0 T+ N- L' S* u
  57. Language                                 : English- m+ h, H; P0 n7 h
  58. Default                                  : Yes
    , p; c7 c8 X* p. n
  59. Forced                                   : No
    4 s0 O5 C5 J8 d0 j4 @$ O5 G

  60. / {9 _- P# @) m; c" W1 N
  61. Menu
    0 j3 ~- X- ?# s. q- a
  62. 00:00:00.000                             : en:00:00:00.0005 u: m' `% ?4 ~2 y0 w+ L) ?) o6 M
  63. 00:16:39.290                             : en:00:16:39.290, a: W; [0 g+ ?
  64. 00:34:04.542                             : en:00:34:04.542. r' _4 k; l0 B1 \
  65. 00:49:07.653                             : en:00:49:07.6538 a* ?/ R1 B# C9 Q4 d  P
  66. 01:05:47.443                             : en:01:05:47.443
    ) f8 @/ e; a" T* l
  67. 01:22:36.410                             : en:01:22:36.410% ~, V; k& v' E- g$ o2 N6 W9 e
  68. 01:38:49.048                             : en:01:38:49.048" }" H9 d7 x( T* \0 Z$ Z4 J
  69. 01:56:29.900                             : en:01:56:29.900( ]6 K0 \. D. {! x) }  F
复制代码

1 R4 d5 ~! H- }/ b  w+ G2 {9 R% O复制代码1 j3 X5 A5 i' F  p; i; p* i

1 }) X8 e5 Z9 U; _$ m# Y; M- s 非凡使命 Extraordinary.Mission.2017.720p.BluRay.x264-SPRiNTER 5.46GB-3.jpg
& t; V; L# ?) w" r1 T" p$ r& G3 T- C1 b( K; `
' n0 L* n2 g' Q) N9 R6 ?
回复

使用道具 举报

懒得打字嘛,点击右侧快捷回复 【右侧内容,后台自定义】
您需要登录后才可以回帖 登录 | 立即注册

本版积分规则

QQ|Archiver|手机版|小黑屋|中国高清网 |网站地图

GMT+8, 2019-2-21 15:18 , Processed in 0.133924 second(s), 40 queries .

Powered by HDchina X3.4

Copyright 2017-2018©HDchina.All right reserved

返回顶部 联系我们