你所知道的4K资源这里全部都有 4K电影 | 4K视频 | 4K壁纸 | 4K MV 怎么播放4K视频 | 4K电视演示片

教你玩转4K私人与家庭影院存储 NAS组装 | 黑群辉 家庭/影院Nas论坛

4K家庭影院信号源与视频设备知识 4K蓝光高清播放机 - 那个品牌好? 4K投影机论坛 | 4K电视机论坛

手把手教你搭建属于自己的家庭影院 4K家庭影院案例 | 家庭影院音频 4K家庭影院论坛

查看: 107|回复: 0

[喜剧片] 18索命指 18.Fingers.of.Death.2006.720p.BluRay.x264-SPRiNTER 3.28GB

[复制链接]

 成长值: 1380

级别:资源管理组

注册时间
2017-10-20
最后登录
2019-5-26
听众
0
收听
0
主题
77703
蓝光币
19880 枚
贡献
2024 点
发表于 2018-12-6 20:45:36 | 显示全部楼层 |阅读模式
, x* T( o/ l" ~/ E; U! ?
18索命指 18.Fingers.of.Death.2006.720p.BluRay.x264-SPRiNTER 3.28GB-1.jpg $ R$ R7 z; r8 g) j' M1 e, m# e
18索命指 18.Fingers.of.Death.2006.720p.BluRay.x264-SPRiNTER 3.28GB-2.jpg   `, d8 `3 L8 v; M. }

% @5 P6 t6 D) I8 }6 d! B8 d# V- W" t◎译  名 18索命指
* G1 v9 {, @4 {0 e+ E◎片  名 18 Fingers of Death!! }: ?; i" {, J$ m# x5 I
◎年  代 2006
8 V6 @" h& B1 O& |◎产  地 美国2 a, l" g! b' ]' X
◎类  别 笑剧 / 行动
2 u1 G1 [% i4 P: b8 a◎语  言 英语
( {/ O2 H0 W( r) Z◎上映日期 2006-04-11. a" _& B, r. N7 V
◎IMDb评分 3.4/10 from 587 users) E  @5 v  K" m+ e) q' ?
◎IMDb链接 http://www.imdb.com/title/tt0397853) R+ K0 U6 U) \# ~" \4 q0 V8 h( H8 i
◎豆瓣评分 0/10 from 0 users
$ O% N3 `* R1 }◎豆瓣链接 https://movie.douban.com/subject/2127683/
% _" c8 Q5 K+ ]* j◎片  长 USA: 87 分钟
% G( [( {4 b( y7 j* q. r◎导  演 James Lew/ a+ p. x6 ~  ~0 p, S% x
◎主  演 James Lew
# W2 Q3 g: \* p      Maurice Patton
& ?4 V( N6 P! [# Y! t' ]      Lisa Arturo7 K4 T6 E4 C& o5 s$ C: j2 E1 _
4 U  G  w( ^0 S; C  H  Z# \% W+ `

, j4 ]$ O/ e0 ?◎标  签 骗人戏法 | 雷
0 k. X* Z) B8 h$ |! s% h5 I4 T+ m4 z* @8 v8 ]) X' ]
◎简  介  
1 U0 f, X- M8 L$ `5 G2 _
% f+ E( P) E1 y4 l  m! H2 r, |4 X  暂无相关剧情先容
( g) `  g. X1 s6 p' R6 r, y1 L0 J4 e+ l. p, F
  1.   D8 X7 C9 a; ]5 X% J+ \
  2. Video; J: b% F4 e1 i3 M( ^. M( o
  3. ID                                       : 11 B, L5 L9 c5 t6 t
  4. Format                                   : AVC+ Y% P4 M8 [) n" D3 F
  5. Format/Info                              : Advanced Video Codec% }( B3 h& d$ K0 r) x; R
  6. Format profile                           : [url=/cdn-cgi/l/email-protection][email protected][/url]
    ' G" c' m0 r0 U1 K3 [
  7. Format settings                          : CABAC / 9 Ref Frames) j+ p" q9 F* S1 |" h1 {
  8. Format settings, CABAC                   : Yes, g( ~! P# f8 |6 Q# Y- I: f4 D4 k
  9. Format settings, ReFrames                : 9 frames
    & y; p3 N9 Y; ~- H+ w2 {
  10. Codec ID                                 : V_MPEG4/ISO/AVC1 A& k$ Z1 Y( _6 E3 |" j) V
  11. Duration                                 : 1 h 27 min
    6 [7 V6 d+ i4 G# t: _
  12. Bit rate                                 : 5 175 kb/s
    + Z# R# k' d& z* B8 k0 _, x
  13. Width                                    : 1 280 pixels$ S1 e5 q' P* H
  14. Height                                   : 720 pixels
    , M6 c/ w$ U2 z2 h: ~/ {, A& `
  15. Display aspect ratio                     : 16:9/ V  }; j% g) q+ J3 X% `! ?
  16. Frame rate mode                          : Constant
    8 V; q' g" w; `- F1 v6 N; {) o
  17. Frame rate                               : 23.976 (24000/1001) FPS# ?+ m8 ]! r5 H' Y0 O
  18. Color space                              : YUV* G& h- @+ T" a& _1 L! y
  19. Chroma subsampling                       : 4:2:0
    * A3 R8 U+ R5 Y8 S) G
  20. Bit depth                                : 8 bits' E4 }: W* I3 D) S" t6 U+ D9 c" P
  21. Scan type                                : Progressive3 s. T# c, Q( H8 }; g, e- J
  22. Bits/(Pixel*Frame)                       : 0.234
    - q# R' n$ @  n
  23. Stream size                              : 3.16 GiB (96%)
    ) t% O& q* a1 j) c) L
  24. Writing library                          : x264 core 157 r2935 545de2f9 O3 Y( g  R. @/ c$ P! j
  25. Encoding settings                        : cabac=1 / ref=9 / deblock=1:-3:-3 / analyse=0x3:0x133 / me=umh / subme=9 / psy=1 / psy_rd=1.00:0.00 / mixed_ref=1 / me_range=24 / chroma_me=1 / trellis=1 / 8x8dct=1 / cqm=0 / deadzone=21,11 / fast_pskip=0 / chroma_qp_offset=-2 / threads=18 / lookahead_threads=3 / sliced_threads=0 / nr=0 / decimate=1 / interlaced=0 / bluray_compat=0 / constrained_intra=0 / bframes=8 / b_pyramid=2 / b_adapt=2 / b_bias=0 / direct=3 / weightb=1 / open_gop=0 / weightp=2 / keyint=250 / keyint_min=23 / scenecut=40 / intra_refresh=0 / rc_lookahead=60 / rc=2pass / mbtree=1 / bitrate=5175 / ratetol=1.0 / qcomp=0.60 / qpmin=0 / qpmax=69 / qpstep=4 / cplxblur=20.0 / qblur=0.5 / vbv_maxrate=62500 / vbv_bufsize=78125 / nal_hrd=none / filler=0 / ip_ratio=1.40 / aq=1:1.00
    " D9 F5 c; u8 D( _, E5 Z
  26. Default                                  : Yes
      S3 ~1 ?' s3 o+ j
  27. Forced                                   : No
    ; \" L+ W2 O# Z6 }0 Z

  28. ) {! m6 B# Q+ Q& E
  29. Audio
    % W1 M' v4 f8 k
  30. ID                                       : 2: m- W$ j0 ~& j- I7 z4 q
  31. Format                                   : AC-3
    . G  h* y  p. U, V5 h
  32. Format/Info                              : Audio Coding 38 ?4 h7 H) \' b! n# ^
  33. Commercial name                          : Dolby Digital1 j* L) F& C, r( E" x' w0 K" l* a. }
  34. Codec ID                                 : A_AC3
    " ~" I/ p# Q4 _9 t5 F
  35. Duration                                 : 1 h 27 min) C3 ~5 \# y( U! m
  36. Bit rate mode                            : Constant2 p! r9 n8 R( M3 k
  37. Bit rate                                 : 192 kb/s
    2 B: ~6 C% |1 y0 b; s
  38. Channel(s)                               : 2 channels
    & k. K5 G6 T" D. e# Y
  39. Channel layout                           : L R  y2 r. k2 O* T% H3 G
  40. Sampling rate                            : 48.0 kHz" O) S% l3 z/ c+ _9 O
  41. Frame rate                               : 31.250 FPS (1536 SPF)" p- q9 m: y) X: m
  42. Bit depth                                : 16 bits. Z- u/ @9 y% ]. F8 h/ s, o
  43. Compression mode                         : Lossy
    , l* p0 @: w( _0 q# B6 U
  44. Stream size                              : 120 MiB (4%)
    . `' E9 l3 R- \; }" Y/ R4 T
  45. Language                                 : English
    1 Y) k6 u5 ?1 f/ v# R( H4 l8 R
  46. Service kind                             : Complete Main: B' ]& c/ z+ K
  47. Default                                  : Yes
    % W; E; ^2 x! B/ M% d
  48. Forced                                   : No
    6 a3 G  X) Z. N0 }1 l  h

  49. ( X/ |7 k5 a1 b6 K+ V
  50. Menu  l; m0 K# _4 L+ u9 Z
  51. 00:00:00.000                             : en:00:00:00.000
    % H1 t* k; _$ c
  52. 00:10:00.600                             : en:00:10:00.600
    - d0 k- }' y: H
  53. 00:20:01.200                             : en:00:20:01.200
    9 x' j* z/ O, x# h6 U
  54. 00:30:01.800                             : en:00:30:01.800
    / o7 p& C6 X4 u9 I9 l
  55. 00:40:02.400                             : en:00:40:02.4005 M5 T( i$ V3 k2 o3 {
  56. 00:50:03.000                             : en:00:50:03.000
    $ y* \3 e! }. Z  V$ {
  57. 01:00:03.600                             : en:01:00:03.600
    + ]2 R/ @! n# n) ^; R/ [1 r
  58. 01:10:04.200                             : en:01:10:04.200) u3 C- z8 v( W' Q* R4 D* V
  59. 01:20:04.800                             : en:01:20:04.800
    4 U$ ~! K7 Q7 [8 `2 F) G
复制代码

9 o% ^1 G# I1 m; R& ?2 x4 J复制代码
5 U% O0 k" U4 p# c8 U) L& L' V3 R
. L: ]* {8 j% O7 Y 18索命指 18.Fingers.of.Death.2006.720p.BluRay.x264-SPRiNTER 3.28GB-3.jpg
" d4 B" _  D* K, S( k4 Z; d$ x
; N* o3 R: T$ O: [' u7 @% `
) B' E* C. v) Y3 _8 |- Q& M$ R, i' y4 a& D1 v
( ~( V1 k% G, {1 t

: q7 Q: a' U# R2 f, C2 i
回复

使用道具 举报

*滑动验证:
懒得打字嘛,点击右侧快捷回复 【右侧内容,后台自定义】
您需要登录后才可以回帖 登录 | 立即注册

本版积分规则

QQ|Archiver|手机版|小黑屋| 中国高清网  |网站地图

GMT+8, 2019-5-27 01:14 , Processed in 0.151247 second(s), 46 queries .

Powered by HDchina X3.4

Copyright 2017-2019©HDchina.All right reserved

返回顶部 联系我们