你所知道的4K资源这里全部都有 4K电影 | 4K视频 | 4K壁纸 | 4K MV 怎么播放4K视频 | 4K电视演示片

教你玩转4K私人与家庭影院存储 NAS组装 | 黑群辉 家庭/影院Nas论坛

4K家庭影院信号源与视频设备知识 4K蓝光高清播放机 - 那个品牌好? 4K投影机论坛 | 4K电视机论坛

手把手教你搭建属于自己的家庭影院 4K家庭影院案例 | 家庭影院音频 4K家庭影院论坛

查看: 20|回复: 0

[喜剧片] 18索命指 18.Fingers.of.Death.2006.720p.BluRay.x264-SPRiNTER 3.28GB

[复制链接]

级别:资源管理组

UID
1
注册时间
2017-10-20
最后登录
2018-12-14
听众
0
收听
0
主题
73005
蓝光币
104512 枚
贡献
142813 点
发表于 2018-12-6 20:45:36 | 显示全部楼层 |阅读模式

! d0 B; J$ y1 W) s: D+ [ 18索命指 18.Fingers.of.Death.2006.720p.BluRay.x264-SPRiNTER 3.28GB-1.jpg
0 n8 B: O( U$ m 18索命指 18.Fingers.of.Death.2006.720p.BluRay.x264-SPRiNTER 3.28GB-2.jpg + u# r9 L$ ?* ]" z3 z8 \

! ]6 m7 \6 v; _2 I  z7 y! M◎译  名 18索命指
4 r# s% U  t/ Q6 X. c◎片  名 18 Fingers of Death!
; G; s* [" m0 {. H9 E- q◎年  代 2006
8 x( i& m& Q# A2 k/ T& ]- `◎产  地 美国
8 U3 c6 r. c  @9 I4 o◎类  别 笑剧 / 行动
  @) K  A- T8 H6 Y! k7 @2 m# r% a◎语  言 英语' R  S  y% |2 P% ]9 E
◎上映日期 2006-04-11! J: _) Y! i2 ^
◎IMDb评分 3.4/10 from 587 users
6 t" ^  T, W2 k  z◎IMDb链接 http://www.imdb.com/title/tt0397853
0 H3 T, L7 ?6 Z, w" g) o" `◎豆瓣评分 0/10 from 0 users
: V( ?& \: {) y/ r! V/ g◎豆瓣链接 https://movie.douban.com/subject/2127683/
$ Q  T! s+ n2 M6 t2 G◎片  长 USA: 87 分钟' v5 |4 @5 p* s* H) a$ Z
◎导  演 James Lew- t9 w& Q# v* C4 r
◎主  演 James Lew
$ N1 }% C" i4 z" D      Maurice Patton
+ ^6 b) j( I2 ]" z- F  e: x      Lisa Arturo
1 J% n. U* T; B; G2 `( J) J! O

% P- R( ?) X, F$ G◎标  签 骗人戏法 | 雷
# `# h  l- i& V" T, k5 L/ p$ M* d% x+ v" `
◎简  介  
* q( F- E  j0 {" F3 Y
4 }4 S' F" x3 a. W* k+ |& f  暂无相关剧情先容1 h& Y8 o- W3 {* v

" r) O6 P* ^4 r, q9 ~- A" I
  1. 3 |4 \8 M* g/ \$ S
  2. Video
    / U! \; E! n% i8 B4 P
  3. ID                                       : 13 Z7 a  M& k$ D
  4. Format                                   : AVC
    % Z% }, }; }% F/ q( W8 P3 G! g# a( s
  5. Format/Info                              : Advanced Video Codec2 u" E1 f, z  X: W/ |2 g0 Q
  6. Format profile                           : [url=/cdn-cgi/l/email-protection][email protected][/url]
    , d9 d; k/ U; P
  7. Format settings                          : CABAC / 9 Ref Frames
    9 j# o" \9 Y+ N1 Q+ O* j0 f
  8. Format settings, CABAC                   : Yes3 o; t7 c- q% h! y) n' _0 r
  9. Format settings, ReFrames                : 9 frames% w1 O! t  Q% F! `" n+ E
  10. Codec ID                                 : V_MPEG4/ISO/AVC
    + r: F* H9 ?* M" k6 ]5 \
  11. Duration                                 : 1 h 27 min
    7 l1 B% W# m; v! v3 u* m6 G
  12. Bit rate                                 : 5 175 kb/s
    ! I9 ~' w% b8 t: j  _) t
  13. Width                                    : 1 280 pixels
    9 Q" T/ G+ n  v) C
  14. Height                                   : 720 pixels
    9 J' X% Y: H; d; T$ a# o
  15. Display aspect ratio                     : 16:9
    6 C1 i$ {8 t8 [0 H' s9 ?
  16. Frame rate mode                          : Constant
    + u+ L$ E; @9 c" }/ \" v
  17. Frame rate                               : 23.976 (24000/1001) FPS
    . j/ j- f3 o5 E' S: ]
  18. Color space                              : YUV
    # I, h- [: Y: Q; v
  19. Chroma subsampling                       : 4:2:0' x. r2 b$ c2 b0 G0 K# j9 @
  20. Bit depth                                : 8 bits' _% ]! ~: e* v$ M
  21. Scan type                                : Progressive, j# {2 R) [; v3 F' \/ R
  22. Bits/(Pixel*Frame)                       : 0.234
    - A% Y' B" H( s+ I: z/ J$ K
  23. Stream size                              : 3.16 GiB (96%)
    ( S5 f7 |9 |( ]0 a
  24. Writing library                          : x264 core 157 r2935 545de2f6 K5 L$ w. k# Q6 D3 W% i
  25. Encoding settings                        : cabac=1 / ref=9 / deblock=1:-3:-3 / analyse=0x3:0x133 / me=umh / subme=9 / psy=1 / psy_rd=1.00:0.00 / mixed_ref=1 / me_range=24 / chroma_me=1 / trellis=1 / 8x8dct=1 / cqm=0 / deadzone=21,11 / fast_pskip=0 / chroma_qp_offset=-2 / threads=18 / lookahead_threads=3 / sliced_threads=0 / nr=0 / decimate=1 / interlaced=0 / bluray_compat=0 / constrained_intra=0 / bframes=8 / b_pyramid=2 / b_adapt=2 / b_bias=0 / direct=3 / weightb=1 / open_gop=0 / weightp=2 / keyint=250 / keyint_min=23 / scenecut=40 / intra_refresh=0 / rc_lookahead=60 / rc=2pass / mbtree=1 / bitrate=5175 / ratetol=1.0 / qcomp=0.60 / qpmin=0 / qpmax=69 / qpstep=4 / cplxblur=20.0 / qblur=0.5 / vbv_maxrate=62500 / vbv_bufsize=78125 / nal_hrd=none / filler=0 / ip_ratio=1.40 / aq=1:1.00
    ; K' W" a% V! f1 j
  26. Default                                  : Yes$ C8 Z* y# N9 n4 F0 K3 T4 J
  27. Forced                                   : No; |# R) N! T' K! p3 Q% [) m+ ]
  28. : |1 L7 ]  ?- h# L  _2 Y3 A* t
  29. Audio
    " f! I& W& I0 a8 S( c: ^
  30. ID                                       : 2
    7 e3 ]# `$ Z. G# I. Z( @2 Y9 r
  31. Format                                   : AC-3
    3 H0 u/ _+ X4 D$ @; ^
  32. Format/Info                              : Audio Coding 34 N, _# P" Q, @  w7 Z; Q7 i! d. B5 S
  33. Commercial name                          : Dolby Digital
    1 P: u# {1 z4 _' E& K
  34. Codec ID                                 : A_AC34 f/ |! M0 y% p6 m/ j9 z
  35. Duration                                 : 1 h 27 min1 c  [, I2 C( M
  36. Bit rate mode                            : Constant% l' w7 _8 f+ j+ ^$ R! e
  37. Bit rate                                 : 192 kb/s  }  Y! S7 Y+ ?# ]& }
  38. Channel(s)                               : 2 channels
    ! Y1 Q6 ~. E& x, s( M, t- ?3 R
  39. Channel layout                           : L R
    0 `( E( W. `0 |' P
  40. Sampling rate                            : 48.0 kHz
    ' ~7 E: m4 [; p" |( h4 e
  41. Frame rate                               : 31.250 FPS (1536 SPF)
    0 Z0 U9 U& P6 I; w
  42. Bit depth                                : 16 bits
    & F  ~3 u# }8 A9 A1 D4 }
  43. Compression mode                         : Lossy5 {( i' N( W/ h
  44. Stream size                              : 120 MiB (4%)
    5 n! y& Y$ K6 V* p& t9 X
  45. Language                                 : English
    , d. ?' K4 z& p( F
  46. Service kind                             : Complete Main, K# N, s# J8 U7 P0 A* Z! ^
  47. Default                                  : Yes& i! O$ {! f, w5 N+ i
  48. Forced                                   : No
    ) B6 p6 r. o: q! u; p, e) E9 }
  49. ; u% \% O2 _1 s: ^2 A4 a" T- O
  50. Menu  V3 S3 j: U' U$ L+ e/ m7 @
  51. 00:00:00.000                             : en:00:00:00.000* c% o  D5 G6 a" b* D0 j
  52. 00:10:00.600                             : en:00:10:00.600; m2 j* R" a7 z9 k; q
  53. 00:20:01.200                             : en:00:20:01.200! ]2 Q2 Q' @' _- ~/ \
  54. 00:30:01.800                             : en:00:30:01.800$ i. q% j1 k  N4 g; {/ e
  55. 00:40:02.400                             : en:00:40:02.400
    8 o6 t6 S1 M  E3 y
  56. 00:50:03.000                             : en:00:50:03.0007 p2 v5 Y0 n7 F* i: l8 z
  57. 01:00:03.600                             : en:01:00:03.600
    ) k# |/ ^8 M- z1 P5 n* b
  58. 01:10:04.200                             : en:01:10:04.200
    / Q0 P( W3 ]. q( f! D4 J
  59. 01:20:04.800                             : en:01:20:04.8005 i; b7 d8 w6 u! W
复制代码
" d% b& n- b, ^2 H0 s8 f% x* T
复制代码
5 O+ l& K- o' }8 V6 t/ n$ l) {% k& M  F5 o1 l: w4 L
18索命指 18.Fingers.of.Death.2006.720p.BluRay.x264-SPRiNTER 3.28GB-3.jpg
) w0 Z- g& C. R% l4 E7 ^% d* g- I/ ]8 `  u: h+ u8 P& J9 E2 {

( D* [5 |$ i2 g% _2 B, g7 x, f' X3 U$ o
- @' u/ {  _2 n% `5 P9 H4 N+ P/ V9 t& B' B' G; J

$ `5 b* P' {" _4 G# A5 O! M
回复

使用道具 举报

懒得打字嘛,点击右侧快捷回复 【右侧内容,后台自定义】
您需要登录后才可以回帖 登录 | 立即注册

本版积分规则

QQ|Archiver|手机版|小黑屋|中国高清网 |网站地图

GMT+8, 2018-12-14 15:41 , Processed in 0.114509 second(s), 41 queries .

Powered by HDchina X3.4

Copyright 2017-2018©HDchina.All right reserved

返回顶部 联系我们