你所知道的4K资源这里全部都有 4K电影 | 4K视频 | 4K壁纸 | 4K MV 怎么播放4K视频 | 4K电视演示片

教你玩转4K私人与家庭影院存储 NAS组装 | 黑群辉 家庭/影院Nas论坛

4K家庭影院信号源与视频设备知识 4K蓝光高清播放机 - 那个品牌好? 4K投影机论坛 | 4K电视机论坛

手把手教你搭建属于自己的家庭影院 4K家庭影院案例 | 家庭影院音频 4K家庭影院论坛

查看: 64|回复: 0

[喜剧片] 18索命指 18.Fingers.of.Death.2006.720p.BluRay.x264-SPRiNTER 3.28GB

[复制链接]

 成长值: 420

级别:资源管理组

注册时间
2017-10-20
最后登录
2019-2-21
听众
0
收听
0
主题
74871
蓝光币
125840 枚
贡献
144680 点
发表于 2018-12-6 20:45:36 | 显示全部楼层 |阅读模式

0 C' g% e) c" U2 Y! [ 18索命指 18.Fingers.of.Death.2006.720p.BluRay.x264-SPRiNTER 3.28GB-1.jpg ! d  P: V% V( A
18索命指 18.Fingers.of.Death.2006.720p.BluRay.x264-SPRiNTER 3.28GB-2.jpg * O5 |* P$ o4 Q4 x, \$ T$ t7 |: |  A

) l2 @% O  l0 E* z/ q◎译  名 18索命指
1 F6 ?0 _) q5 M: b4 d◎片  名 18 Fingers of Death!
. C1 z6 E4 Q8 I1 O5 A; ~* K◎年  代 2006
/ }* ]/ [8 g+ p$ F5 d8 E$ P' q◎产  地 美国) {8 O+ {7 v9 D. U
◎类  别 笑剧 / 行动" k( R0 c$ b: [7 g8 K4 k) S
◎语  言 英语
9 g) |/ S2 B9 _. P◎上映日期 2006-04-11
5 J8 F* v  C  W+ c◎IMDb评分 3.4/10 from 587 users
3 N" ?* h5 G" `1 }◎IMDb链接 http://www.imdb.com/title/tt0397853
4 i0 k, t- y. J# @2 b  s4 U◎豆瓣评分 0/10 from 0 users$ g* {  z: S  y
◎豆瓣链接 https://movie.douban.com/subject/2127683/( \. h/ T" S& l$ h) l
◎片  长 USA: 87 分钟: m( k& e9 Q* t/ Y  K, S1 @
◎导  演 James Lew6 z6 ]0 [  B9 d7 q
◎主  演 James Lew( z% q  K6 n3 U( {
      Maurice Patton
/ ?: B( z2 C0 l( R( u      Lisa Arturo
0 v, o4 u7 s  {/ ^% o/ ]8 _7 T( r, s6 P7 [5 F

/ o" e# {' k7 E8 k◎标  签 骗人戏法 | 雷
* n. K" P# c2 v/ j. K) n! f1 ]% K
◎简  介  
; q8 A: P+ e: n2 E* p1 z  t, b& Y% i: M: Z/ R( m
  暂无相关剧情先容( H$ M) `; P: W
9 \- _' t, i) y- O! Y( _( e

  1. 6 n1 v! Q* w* R/ `  s4 F
  2. Video1 }6 U8 B5 K9 m+ e
  3. ID                                       : 1, v2 T1 I. H7 {/ X' m8 {# {" n+ w3 V
  4. Format                                   : AVC' z2 P* g3 [% K2 }5 s$ T$ T8 P
  5. Format/Info                              : Advanced Video Codec
    1 B: S8 m; m9 j% d9 B0 e1 v  O9 t
  6. Format profile                           : [url=/cdn-cgi/l/email-protection][email protected][/url]# B7 }3 Y0 c( G1 V( n  T. E8 \5 w0 H* s
  7. Format settings                          : CABAC / 9 Ref Frames6 F* \( d# s2 k  z5 ^) f6 f2 M
  8. Format settings, CABAC                   : Yes
    1 ^& s' M" e$ H3 P8 Y# N
  9. Format settings, ReFrames                : 9 frames
    6 {  e. U& ]: D
  10. Codec ID                                 : V_MPEG4/ISO/AVC
    . h# c7 f9 O& m. J
  11. Duration                                 : 1 h 27 min
    8 c1 N! z2 v4 p1 {4 i. K4 K
  12. Bit rate                                 : 5 175 kb/s
    + G2 z5 I- X, K3 x2 }8 A
  13. Width                                    : 1 280 pixels4 U5 p" d) g7 ]: Q- I# l
  14. Height                                   : 720 pixels
    ' ~2 _; B! I8 }  U
  15. Display aspect ratio                     : 16:9& _) ^( }3 D! n3 e
  16. Frame rate mode                          : Constant! j3 F3 l) d. n
  17. Frame rate                               : 23.976 (24000/1001) FPS. r" n8 D- `1 l3 g
  18. Color space                              : YUV
    - U' u  Z9 s- Y8 O2 e4 ~1 i3 {
  19. Chroma subsampling                       : 4:2:0
    2 w: u. e% i" q
  20. Bit depth                                : 8 bits8 S$ |! [0 a& m0 X
  21. Scan type                                : Progressive
    . k# y5 s" g+ s: c( ]* u, ]: s2 l
  22. Bits/(Pixel*Frame)                       : 0.234
    + c* j) `4 j* V1 T; L  Y
  23. Stream size                              : 3.16 GiB (96%)
    * O* h# _; d/ V
  24. Writing library                          : x264 core 157 r2935 545de2f7 q  X' ]5 h, N" ~
  25. Encoding settings                        : cabac=1 / ref=9 / deblock=1:-3:-3 / analyse=0x3:0x133 / me=umh / subme=9 / psy=1 / psy_rd=1.00:0.00 / mixed_ref=1 / me_range=24 / chroma_me=1 / trellis=1 / 8x8dct=1 / cqm=0 / deadzone=21,11 / fast_pskip=0 / chroma_qp_offset=-2 / threads=18 / lookahead_threads=3 / sliced_threads=0 / nr=0 / decimate=1 / interlaced=0 / bluray_compat=0 / constrained_intra=0 / bframes=8 / b_pyramid=2 / b_adapt=2 / b_bias=0 / direct=3 / weightb=1 / open_gop=0 / weightp=2 / keyint=250 / keyint_min=23 / scenecut=40 / intra_refresh=0 / rc_lookahead=60 / rc=2pass / mbtree=1 / bitrate=5175 / ratetol=1.0 / qcomp=0.60 / qpmin=0 / qpmax=69 / qpstep=4 / cplxblur=20.0 / qblur=0.5 / vbv_maxrate=62500 / vbv_bufsize=78125 / nal_hrd=none / filler=0 / ip_ratio=1.40 / aq=1:1.00( Y4 k$ g+ k, e& h" [* a7 q
  26. Default                                  : Yes  V" H! d/ G: A9 P: `+ R: T" t
  27. Forced                                   : No6 R/ N/ O. ]& G: X" J0 m# X2 s

  28. 5 `- C  F1 l+ T2 k
  29. Audio* a$ ]& U; r- U, x& _
  30. ID                                       : 2
    $ r$ H" o7 s  H- B
  31. Format                                   : AC-36 o! Q# R3 D) `1 K% E/ V" ?$ H
  32. Format/Info                              : Audio Coding 34 f  t' l" D. u# f* f
  33. Commercial name                          : Dolby Digital  e8 Y, m+ N; p' ~
  34. Codec ID                                 : A_AC34 B: l0 R6 T. I# F
  35. Duration                                 : 1 h 27 min
    1 s" O) U  W  n* h0 V
  36. Bit rate mode                            : Constant
    7 O) R7 f% l& F6 O
  37. Bit rate                                 : 192 kb/s# f8 z& J; k% S5 k6 s6 t* t
  38. Channel(s)                               : 2 channels; O: K: U) M3 K/ O; K8 o, h
  39. Channel layout                           : L R: u) T0 Q0 F3 F3 [% u+ [4 N. c$ V
  40. Sampling rate                            : 48.0 kHz* a" i! _4 B3 U
  41. Frame rate                               : 31.250 FPS (1536 SPF)+ P' a) u2 ?% V, Q) Y+ T2 _  g
  42. Bit depth                                : 16 bits
    . J* m* [: p6 |4 J# h- f0 v
  43. Compression mode                         : Lossy
    ( x3 Z9 ~. B+ e5 E) f& e
  44. Stream size                              : 120 MiB (4%)
    % ^5 J( U" _8 s+ P6 t. o$ e
  45. Language                                 : English
    + ?$ E  A7 G3 q' Q, T3 t
  46. Service kind                             : Complete Main
    ) a  S- K! m8 ]+ [- J) S( d
  47. Default                                  : Yes
    , _9 O( k7 ?4 j, n: t
  48. Forced                                   : No
    7 h" y+ M+ F5 A7 [& Q& i, _& k. e

  49. ! `$ Y- Z( E, m* a) T4 n5 s
  50. Menu
    : U4 T. D2 n, l7 v
  51. 00:00:00.000                             : en:00:00:00.000
    7 K$ I8 _  Q8 d8 x) ^
  52. 00:10:00.600                             : en:00:10:00.600& D7 L4 |( e1 L$ ?# L# q
  53. 00:20:01.200                             : en:00:20:01.2007 g8 I% r& q" t4 [, m; X2 T* E3 o
  54. 00:30:01.800                             : en:00:30:01.800) j% h: M4 d- s( j
  55. 00:40:02.400                             : en:00:40:02.4006 _; }, z$ x5 R$ ^% y9 |  C7 V
  56. 00:50:03.000                             : en:00:50:03.000: r2 ^5 ~% g) z/ S) g3 U% ^/ s
  57. 01:00:03.600                             : en:01:00:03.600. \0 g* z4 S% p. S( \1 T2 h
  58. 01:10:04.200                             : en:01:10:04.200
    , k- Z5 c! }' A( Y: [3 j  ]! p
  59. 01:20:04.800                             : en:01:20:04.800
    1 h3 T" @0 u9 L: _- E8 A1 e% d: a
复制代码

5 V( s; O0 n- y复制代码* N! o+ Q" z, e( H
% c8 P6 b! i9 {
18索命指 18.Fingers.of.Death.2006.720p.BluRay.x264-SPRiNTER 3.28GB-3.jpg
/ C! F% I2 U& H& k
; a6 |* K- q0 a( A3 l/ I# ]. G
0 o2 ]+ x8 D: `6 h2 \
5 h) Z- r+ F6 p* I( ]% z
% g1 i* a& s, @5 }
. q3 r: R6 c; G, G# Z# T& X
回复

使用道具 举报

懒得打字嘛,点击右侧快捷回复 【右侧内容,后台自定义】
您需要登录后才可以回帖 登录 | 立即注册

本版积分规则

QQ|Archiver|手机版|小黑屋|中国高清网 |网站地图

GMT+8, 2019-2-21 15:36 , Processed in 0.121923 second(s), 40 queries .

Powered by HDchina X3.4

Copyright 2017-2018©HDchina.All right reserved

返回顶部 联系我们