你所知道的4K资源这里全部都有 4K电影 | 4K视频 | 4K壁纸 | 4K MV 怎么播放4K视频 | 4K电视演示片

教你玩转4K私人与家庭影院存储 NAS组装 | 黑群辉 家庭/影院Nas论坛

4K家庭影院信号源与视频设备知识 4K蓝光高清播放机 - 那个品牌好? 4K投影机论坛 | 4K电视机论坛

手把手教你搭建属于自己的家庭影院 4K家庭影院案例 | 家庭影院音频 4K家庭影院论坛

查看: 216|回复: 3

[喜剧片] 唐人街探案2/唐探2 Detective.Chinatown.2.2018.CHINESE.1080p.BluRay.REMUX.AVC.TrueHD.5.1-FGT 20.31GB

[复制链接]

 成长值: 1670

级别:资源管理组

注册时间
2017-10-20
最后登录
2019-6-25
听众
0
收听
0
主题
78745
蓝光币
28950 枚
贡献
3070 点
发表于 2018-11-26 22:49:05 | 显示全部楼层 |阅读模式

唐人街探案2/唐探2 Detective.Chinatown.2.2018.CHINESE.1080p.BluRay.REMUX.AVC.TrueHD.5.1-FGT 20.31GB-1.jpg
◎译  名 唐人街探案2 / 唐探2 / Detective Chinatown Vol 2
◎片  名 唐人街探案2
◎年  代 2018
◎国  家 中国大陆
◎类  别 笑剧 / 行动 / 悬疑 / 犯罪
◎语  言 汉语普通话
◎上映日期 2018-02-16(中国大陆)
◎IMDb评分  6.1/10 from 1,028 users
◎IMDb链接  http://www.imdb.com/title/tt7752454/
◎豆瓣评分 6.7/10 from 452680 users
◎豆瓣链接 https://movie.douban.com/subject/26698897/
◎片  长 121分钟
◎导  演 陈思诚
◎主  演 王宝强
      刘昊然
      肖央
      刘承羽
      尚语贤
      王迅
      妻夫木聪
      迈克尔·皮特
      白灵
      元华
      曾江
      王成思
      杨金赐
      范湉湉
      佟丽娅
      陈思诚

◎简  介 

  唐仁(王宝强 饰)为巨额奖金欺骗秦风(刘昊然 饰)到纽约加出天下名侦察大赛,但是随着和天下列国侦察们啼笑皆非的较劲,两人却发现了隐藏在此次应战背后的更大奥秘...

◎获奖情况 

  第34届公共电影百花奖 (2018)
  最好故事片(提名)
  最好导演(提名) 陈思诚
  最好编剧(提名) 陈思诚
  最好男配角(提名) 刘昊然
  最好新人(提名) 尚语贤

  第25届北京大门生电影节 (2018)
  最受大门生接待影片

  第4届豆瓣电影年度榜单 (2017)
  最值得期待的华语电影(提名)


  1. Video
  2. ID                                       : 1
  3. Format                                   : AVC
  4. Format/Info                              : Advanced Video Codec
  5. Format profile                           : [url=/cdn-cgi/l/email-protection][email protected][/url]
  6. Format settings                          : CABAC / 4 Ref Frames
  7. Format settings, CABAC                   : Yes
  8. Format settings, ReFrames                : 4 frames
  9. Codec ID                                 : V_MPEG4/ISO/AVC
  10. Duration                                 : 2 h 0 min
  11. Bit rate mode                            : Variable
  12. Bit rate                                 : 19.9 Mb/s
  13. Maximum bit rate                         : 28.0 Mb/s
  14. Width                                    : 1 920 pixels
  15. Height                                   : 1 080 pixels
  16. Display aspect ratio                     : 16:9
  17. Frame rate mode                          : Constant
  18. Frame rate                               : 24.000 FPS
  19. Standard                                 : NTSC
  20. Color space                              : YUV
  21. Chroma subsampling                       : 4:2:0
  22. Bit depth                                : 8 bits
  23. Scan type                                : Progressive
  24. Bits/(Pixel*Frame)                       : 0.399
  25. Stream size                              : 16.8 GiB (83%)
  26. Title                                    : Detective.Chinatown.2.2018.CHINESE.1080p.BluRay.REMUX.AVC.TrueHD.5.1-FGT
  27. Default                                  : No
  28. Forced                                   : No
  29. Color range                              : Limited
  30. Color primaries                          : BT.709
  31. Transfer characteristics                 : BT.709
  32. Matrix coefficients                      : BT.709

  33. Audio #1
  34. ID                                       : 2
  35. Format                                   : MLP FBA
  36. Format/Info                              : Meridian Lossless Packing FBA
  37. Commercial name                          : Dolby TrueHD
  38. Codec ID                                 : A_TRUEHD
  39. Duration                                 : 2 h 0 min
  40. Bit rate mode                            : Variable
  41. Bit rate                                 : 2 170 kb/s
  42. Maximum bit rate                         : 3 546 kb/s
  43. Channel(s)                               : 6 channels
  44. Channel layout                           : L R C LFE Ls Rs
  45. Sampling rate                            : 96.0 kHz
  46. Frame rate                               : 1 200.000 FPS (80 SPF)
  47. Compression mode                         : Lossless
  48. Stream size                              : 1.83 GiB (9%)
  49. Title                                    : Detective.Chinatown.2.2018.CHINESE.1080p.BluRay.REMUX.AVC.TrueHD.5.1-FGT
  50. Language                                 : Chinese
  51. Default                                  : Yes
  52. Forced                                   : No

  53. Audio #2
  54. ID                                       : 3
  55. Format                                   : AC-3
  56. Format/Info                              : Audio Coding 3
  57. Commercial name                          : Dolby Digital
  58. Codec ID                                 : A_AC3
  59. Duration                                 : 2 h 0 min
  60. Bit rate mode                            : Constant
  61. Bit rate                                 : 640 kb/s
  62. Channel(s)                               : 6 channels
  63. Channel layout                           : L R C LFE Ls Rs
  64. Sampling rate                            : 48.0 kHz
  65. Frame rate                               : 31.250 FPS (1536 SPF)
  66. Bit depth                                : 16 bits
  67. Compression mode                         : Lossy
  68. Stream size                              : 553 MiB (3%)
  69. Title                                    : Detective.Chinatown.2.2018.CHINESE.1080p.BluRay.REMUX.AVC.TrueHD.5.1-FGT
  70. Language                                 : Chinese
  71. Service kind                             : Complete Main
  72. Default                                  : No
  73. Forced                                   : No

  74. Audio #3
  75. ID                                       : 4
  76. Format                                   : AC-3
  77. Format/Info                              : Audio Coding 3
  78. Commercial name                          : Dolby Digital
  79. Codec ID                                 : A_AC3
  80. Duration                                 : 2 h 0 min
  81. Bit rate mode                            : Constant
  82. Bit rate                                 : 640 kb/s
  83. Channel(s)                               : 6 channels
  84. Channel layout                           : L R C LFE Ls Rs
  85. Sampling rate                            : 48.0 kHz
  86. Frame rate                               : 31.250 FPS (1536 SPF)
  87. Bit depth                                : 16 bits
  88. Compression mode                         : Lossy
  89. Stream size                              : 553 MiB (3%)
  90. Title                                    : Detective.Chinatown.2.2018.CHINESE.1080p.BluRay.REMUX.AVC.TrueHD.5.1-FGT
  91. Language                                 : Chinese
  92. Service kind                             : Complete Main
  93. Default                                  : No
  94. Forced                                   : No

  95. Audio #4
  96. ID                                       : 5
  97. Format                                   : AC-3
  98. Format/Info                              : Audio Coding 3
  99. Commercial name                          : Dolby Digital
  100. Codec ID                                 : A_AC3
  101. Duration                                 : 2 h 0 min
  102. Bit rate mode                            : Constant
  103. Bit rate                                 : 640 kb/s
  104. Channel(s)                               : 6 channels
  105. Channel layout                           : L R C LFE Ls Rs
  106. Sampling rate                            : 48.0 kHz
  107. Frame rate                               : 31.250 FPS (1536 SPF)
  108. Bit depth                                : 16 bits
  109. Compression mode                         : Lossy
  110. Stream size                              : 553 MiB (3%)
  111. Title                                    : Detective.Chinatown.2.2018.CHINESE.1080p.BluRay.REMUX.AVC.TrueHD.5.1-FGT
  112. Language                                 : Chinese
  113. Service kind                             : Complete Main
  114. Default                                  : No
  115. Forced                                   : No

  116. Text #1
  117. ID                                       : 6
  118. Format                                   : PGS
  119. Muxing mode                              : zlib
  120. Codec ID                                 : S_HDMV/PGS
  121. Codec ID/Info                            : Picture based subtitle format used on BDs/HD-DVDs
  122. Duration                                 : 1 h 58 min
  123. Bit rate                                 : 48.2 kb/s
  124. Count of elements                        : 3861
  125. Stream size                              : 40.8 MiB (0%)
  126. Title                                    : English-PGS
  127. Language                                 : English
  128. Default                                  : Yes
  129. Forced                                   : Yes

  130. Text #2
  131. ID                                       : 7
  132. Format                                   : PGS
  133. Muxing mode                              : zlib
  134. Codec ID                                 : S_HDMV/PGS
  135. Codec ID/Info                            : Picture based subtitle format used on BDs/HD-DVDs
  136. Duration                                 : 1 h 58 min
  137. Bit rate                                 : 40.5 kb/s
  138. Count of elements                        : 3864
  139. Stream size                              : 34.2 MiB (0%)
  140. Title                                    : Chinese-PGS
  141. Language                                 : Chinese
  142. Default                                  : No
  143. Forced                                   : No

  144. Text #3
  145. ID                                       : 8
  146. Format                                   : PGS
  147. Muxing mode                              : zlib
  148. Codec ID                                 : S_HDMV/PGS
  149. Codec ID/Info                            : Picture based subtitle format used on BDs/HD-DVDs
  150. Duration                                 : 1 h 58 min
  151. Bit rate                                 : 39.0 kb/s
  152. Count of elements                        : 3836
  153. Stream size                              : 33.0 MiB (0%)
  154. Title                                    : Chinese-PGS
  155. Language                                 : Chinese
  156. Default                                  : No
  157. Forced                                   : No

  158. Menu
  159. 00:00:00.000                             : :00:00:00.000
  160. 00:04:20.083                             : :00:04:20.083
  161. 00:14:05.458                             : :00:14:05.458
  162. 00:18:24.000                             : :00:18:24.000
  163. 00:23:46.167                             : :00:23:46.167
  164. 00:30:41.250                             : :00:30:41.250
  165. 00:35:24.583                             : :00:35:24.583
  166. 00:43:16.917                             : :00:43:16.917
  167. 00:47:26.917                             : :00:47:26.917
  168. 00:54:10.917                             : :00:54:10.917
  169. 00:58:02.583                             : :00:58:02.583
  170. 01:06:28.458                             : :01:06:28.458
  171. 01:13:58.417                             : :01:13:58.417
  172. 01:18:17.375                             : :01:18:17.375
  173. 01:22:23.667                             : :01:22:23.667
  174. 01:28:26.500                             : :01:28:26.500
  175. 01:35:08.375                             : :01:35:08.375
  176. 01:41:26.375                             : :01:41:26.375
  177. 01:47:19.042                             : :01:47:19.042
  178. 01:53:40.583                             : :01:53:40.583
复制代码

复制代码

唐人街探案2/唐探2 Detective.Chinatown.2.2018.CHINESE.1080p.BluRay.REMUX.AVC.TrueHD.5.1-FGT 20.31GB-2.png 唐人街探案2/唐探2 Detective.Chinatown.2.2018.CHINESE.1080p.BluRay.REMUX.AVC.TrueHD.5.1-FGT 20.31GB-3.png 唐人街探案2/唐探2 Detective.Chinatown.2.2018.CHINESE.1080p.BluRay.REMUX.AVC.TrueHD.5.1-FGT 20.31GB-4.png





回复

使用道具 举报

级别:荣升主角 Lv.5

注册时间
2018-5-27
最后登录
2019-6-24
听众
10
收听
0
主题
0
蓝光币
135 枚
贡献
0 点
发表于 2018-11-30 18:57:03 | 显示全部楼层
感谢分享!
回复

使用道具 举报

级别:荣升主角 Lv.5

注册时间
2018-11-29
最后登录
2019-6-24
听众
7
收听
0
主题
0
蓝光币
704 枚
贡献
0 点
QQ
发表于 2019-1-15 22:29:22 | 显示全部楼层

既然你诚信诚意的推荐了,那我就勉为其难的看看吧!中国高清电影网不走平凡路。
回复

使用道具 举报

级别:初级观众 Lv.1

注册时间
2019-2-21
最后登录
2019-2-21
听众
5
收听
0
主题
0
蓝光币
1 枚
贡献
0 点
发表于 2019-2-21 12:36:36 | 显示全部楼层
谢谢楼主分享
回复

使用道具 举报

*滑动验证:
懒得打字嘛,点击右侧快捷回复 【右侧内容,后台自定义】
您需要登录后才可以回帖 登录 | 立即注册

本版积分规则

QQ|Archiver|手机版|小黑屋| 中国高清网 |网站地图

GMT+8, 2019-6-25 01:27 , Processed in 0.187757 second(s), 47 queries .

Powered by HDchina X3.4

Copyright 2017-2019©HDchina.All right reserved

返回顶部 联系我们