你所知道的4K资源这里全部都有 4K电影 | 4K视频 | 4K壁纸 | 4K MV 怎么播放4K视频 | 4K电视演示片

教你玩转4K私人与家庭影院存储 NAS组装 | 黑群辉 家庭/影院Nas论坛

4K家庭影院信号源与视频设备知识 4K蓝光高清播放机 - 那个品牌好? 4K投影机论坛 | 4K电视机论坛

手把手教你搭建属于自己的家庭影院 4K家庭影院案例 | 家庭影院音频 4K家庭影院论坛

查看: 71|回复: 1

[喜剧片] 空中怪客 Brewster.McCloud.1970.1080p.BluRay.REMUX.AVC.DTS-HD.MA.2.0-FGT 28.26GB

[复制链接]

 成长值: 710

级别:资源管理组

注册时间
2017-10-20
最后登录
2019-3-22
听众
0
收听
0
主题
76497
蓝光币
134731 枚
贡献
146306 点
发表于 2018-11-26 22:47:15 | 显示全部楼层 |阅读模式

空中怪客 Brewster.McCloud.1970.1080p.BluRay.REMUX.AVC.DTS-HD.MA.2.0-FGT 28.26GB-1.jpg
◎译  名 空中怪客
◎片  名 空中怪客 Brewster McCloud
◎年  代 1970
◎国  家 美国
◎类  别 笑剧 / 奇异
◎语  言 英语
◎上映日期 1970-12-05
◎IMDb评分  7.0/10 from 3,567 users
◎IMDb链接  http://www.imdb.com/title/tt0065492/
◎豆瓣评分 7.6/10 from 54 users
◎豆瓣链接 https://movie.douban.com/subject/1297095/
◎片  长 105 分钟
◎导  演 罗伯特·奥特曼
◎主  演 巴德·库特
      萨莉·凯勒曼
      迈克尔·墨菲
      谢莉·杜瓦尔
      威廉·温德姆

◎简  介 

  IMDB简介
  Brewster is an owlish, intellectual boy who lives in a fallout shelter of the Houston Astrodome. He has a dream: to take flight within the confines of the stadium. Brewster tells those he trusts of his dream, but displays a unique way of treating others who do not fit within his plans. When the fateful day arrives, and he enters the dome with his fanciful construction of bird wings, Brewster is surrounded by the police. Will he be caught before he attempts to fly? Written by Rick Gregory <[email protected]>


  1. Video
  2. ID                                       : 1
  3. Format                                   : AVC
  4. Format/Info                              : Advanced Video Codec
  5. Format profile                           : [url=/cdn-cgi/l/email-protection][email protected][/url]
  6. Format settings                          : CABAC / 4 Ref Frames
  7. Format settings, CABAC                   : Yes
  8. Format settings, ReFrames                : 4 frames
  9. Codec ID                                 : V_MPEG4/ISO/AVC
  10. Duration                                 : 1 h 45 min
  11. Bit rate mode                            : Variable
  12. Bit rate                                 : 34.9 Mb/s
  13. Maximum bit rate                         : 38.0 Mb/s
  14. Width                                    : 1 920 pixels
  15. Height                                   : 1 080 pixels
  16. Display aspect ratio                     : 16:9
  17. Frame rate mode                          : Constant
  18. Frame rate                               : 23.976 (24000/1001) FPS
  19. Color space                              : YUV
  20. Chroma subsampling                       : 4:2:0
  21. Bit depth                                : 8 bits
  22. Scan type                                : Progressive
  23. Bits/(Pixel*Frame)                       : 0.702
  24. Stream size                              : 25.6 GiB (91%)
  25. Title                                    : Brewster.McCloud.1970.1080p.BluRay.REMUX.AVC.DTS-HD.MA.2.0-FGT
  26. Language                                 : English
  27. Default                                  : No
  28. Forced                                   : No

  29. Audio #1
  30. ID                                       : 2
  31. Format                                   : DTS XLL
  32. Format/Info                              : Digital Theater Systems
  33. Commercial name                          : DTS-HD Master Audio
  34. Codec ID                                 : A_DTS
  35. Duration                                 : 1 h 45 min
  36. Bit rate mode                            : Variable
  37. Bit rate                                 : 1 987 kb/s
  38. Channel(s)                               : 2 channels
  39. Channel layout                           : L R
  40. Sampling rate                            : 48.0 kHz
  41. Frame rate                               : 93.750 FPS (512 SPF)
  42. Bit depth                                : 24 bits
  43. Compression mode                         : Lossless
  44. Stream size                              : 1.46 GiB (5%)
  45. Title                                    : Brewster.McCloud.1970.1080p.BluRay.REMUX.AVC.DTS-HD.MA.2.0-FGT
  46. Language                                 : English
  47. Default                                  : Yes
  48. Forced                                   : No

  49. Audio #2
  50. ID                                       : 3
  51. Format                                   : DTS
  52. Format/Info                              : Digital Theater Systems
  53. Codec ID                                 : A_DTS
  54. Duration                                 : 1 h 45 min
  55. Bit rate mode                            : Constant
  56. Bit rate                                 : 1 509 kb/s
  57. Channel(s)                               : 2 channels
  58. Channel layout                           : L R
  59. Sampling rate                            : 48.0 kHz
  60. Frame rate                               : 93.750 FPS (512 SPF)
  61. Bit depth                                : 24 bits
  62. Compression mode                         : Lossy
  63. Stream size                              : 1.11 GiB (4%)
  64. Title                                    : Brewster.McCloud.1970.1080p.BluRay.REMUX.AVC.DTS-HD.MA.2.0-FGT
  65. Language                                 : English
  66. Default                                  : No
  67. Forced                                   : No

  68. Text
  69. ID                                       : 4
  70. Format                                   : PGS
  71. Muxing mode                              : zlib
  72. Codec ID                                 : S_HDMV/PGS
  73. Codec ID/Info                            : Picture based subtitle format used on BDs/HD-DVDs
  74. Duration                                 : 1 h 44 min
  75. Bit rate                                 : 91.4 kb/s
  76. Count of elements                        : 3404
  77. Stream size                              : 68.1 MiB (0%)
  78. Title                                    : English-PGS
  79. Language                                 : English
  80. Default                                  : Yes
  81. Forced                                   : No

  82. Menu
  83. 00:00:00.000                             : en:Chapter 01
  84. 00:03:49.896                             : en:Chapter 02
  85. 00:06:38.773                             : en:Chapter 03
  86. 00:07:49.469                             : en:Chapter 04
  87. 00:10:07.815                             : en:Chapter 05
  88. 00:14:09.014                             : en:Chapter 06
  89. 00:17:24.209                             : en:Chapter 07
  90. 00:20:39.655                             : en:Chapter 08
  91. 00:24:43.523                             : en:Chapter 09
  92. 00:26:08.900                             : en:Chapter 10
  93. 00:31:01.067                             : en:Chapter 11
  94. 00:35:09.941                             : en:Chapter 12
  95. 00:40:20.126                             : en:Chapter 13
  96. 00:46:50.516                             : en:Chapter 14
  97. 00:50:42.581                             : en:Chapter 15
  98. 00:54:23.385                             : en:Chapter 16
  99. 01:00:32.045                             : en:Chapter 17
  100. 01:04:50.219                             : en:Chapter 18
  101. 01:08:57.424                             : en:Chapter 19
  102. 01:11:42.631                             : en:Chapter 20
  103. 01:16:41.221                             : en:Chapter 21
  104. 01:20:09.179                             : en:Chapter 22
  105. 01:24:49.167                             : en:Chapter 23
  106. 01:30:15.451                             : en:Chapter 24
  107. 01:31:33.404                             : en:Chapter 25
  108. 01:35:50.119                             : en:Chapter 26
  109. 01:43:09.183                             : en:Chapter 27
  110. 01:44:05.239                             : en:Chapter 28
  111. 01:45:12.014                             : en:Chapter 29
复制代码

复制代码

空中怪客 Brewster.McCloud.1970.1080p.BluRay.REMUX.AVC.DTS-HD.MA.2.0-FGT 28.26GB-2.png 空中怪客 Brewster.McCloud.1970.1080p.BluRay.REMUX.AVC.DTS-HD.MA.2.0-FGT 28.26GB-3.png 空中怪客 Brewster.McCloud.1970.1080p.BluRay.REMUX.AVC.DTS-HD.MA.2.0-FGT 28.26GB-4.png





回复

使用道具 举报

级别:荣升主角 Lv.5

注册时间
2018-5-27
最后登录
2019-3-21
听众
4
收听
0
主题
0
蓝光币
17 枚
贡献
0 点
发表于 2018-11-30 18:55:01 | 显示全部楼层
感谢分享!
回复

使用道具 举报

懒得打字嘛,点击右侧快捷回复 【右侧内容,后台自定义】
您需要登录后才可以回帖 登录 | 立即注册

本版积分规则

QQ|Archiver|手机版|小黑屋|中国高清网 |网站地图

GMT+8, 2019-3-22 09:52 , Processed in 0.170950 second(s), 41 queries .

Powered by HDchina X3.4

Copyright 2017-2018©HDchina.All right reserved

返回顶部 联系我们